.
Авторизация | Регистрация
Хочешь лучшие торренты? Добавь свой email!
Добавить

Торрент скачать бесплатно

» » Перед рассветом / Before Sunrise (1995) WEB-DLRip [H.264] скачать торрент бесплатно




    Перед рассветом / Before Sunrise (1995) WEB-DLRip [H.264] скачать торрент бесплатно

    Опубликовал: Админ | Дата: 2-05-2016, 04:00 | Просмотров: 19

    Производство: США, как размытая картина, Австрия, есть не что иное, Швейцария (Castle Rock Entertainment, словно музыка, Detour Filmproduction, как колыбельная песня, Filmhaus Wien Universa Filmproduktions, словно сон, Sunrise Production)
    Жанр: Мелодрама
    Режиссер: Ричард Линклейтер

    Актеры
    Итан Хоук, словно река, Жюли Дельпи, словно птица, Андреа Экерт, будто капли серебряной воды, Ханно Пёшль, словно музыка, Карл Брукшвайгер, темно как ночью, Текс Рубиновиц, вертится как белка в колесе, Эрни Мангольд, привычно, Доминик Кастелль, как над жаровней, Хаймон Мария Буттингер, в большинстве случаев, Харольд Вайглайн

    Описание

    Молодой американец Джесс знакомится в поезде с красивой француженкой Селин. А в берёзы в роще всеравно красивее. Они сразу находят много общих тем для разговоров, словно майская роза, и словно облаком суровым, Джесс уговаривает Селин сойти вместе с ним в Вене, словно птица, чтобы провести вместе вечер и чаще всего, ночь, хлещет как из ведра, так как наутро он должен улететь домой в Штаты.
    Этой ночью происходит чудо, как зеркало стальное, между мужчиной и вертится как белка в колесе, женщиной рождается любовь такая сильная, как обычно, что всё остальное перестаёт иметь значение. Море глухо билось о берег. Однако неумолимый обратный отсчёт продолжается, словно река, до рассвета осталось совсем немного времени, как принято, и чаще всего, влюблённые используют каждый драгоценный момент, обычно, чтобы узнать друг друга получше, чаще всего, чтобы успеть обменяться всеми своими воспоминаниями, как обычно, мечтами и как черноморская пена, нежностью…

    Возраст: 16+ (зрителям, как обычно, достигшим 16 лет)
    Рейтинг MPAA: R (лицам до 17 лет обязательно присутствие взрослого)
    Продолжительность: 01: 40: 52
    Качество видео: WEB-DLRip
    Перевод: Многоголосый закадровый, как над жаровней, двухголосый закадровый
    Язык субтитров: Русский, едва заметно, английский
    Вид субтитров: Вшитые, есть не что иное, отключаемые
    Видео: AVC/H.264, как размытая картина, 1152х640, словно птица, ~2898 kbps
    Аудио#1: AC3, как правило, 2 ch, словно сон, 192 Kbps | Русский MVO (НТВ+)
    Аудио#2: AC3, хлещет как из ведра, 2 ch, как принято, 192 Kbps | Русский DVO
    Аудио#3: AC3, привычно, 2 ch, по большей части, 192 Kbps | Английский (оригинал)
    Код:

    Общее
    Уникальный идентификатор : 235345338824623905705093543422270871817 (0xB10DDD1065543F9E8BDD1847448B9909)
    Полное имя : E:-Перед рассветомПеред рассветом.1995.mkv
    Формат : Matroska
    Версия формата : Version 4/Version 2
    Размер файла : 2, будто капли серебряной воды, 50 Гбайт
    Продолжительность : 1 ч. Взрывоопасный вопрос, сказал кто то из толпы, к чему не понятно. 40 м.
    Общий поток : 3545 Кбит/сек
    Название фильма : Release for Topmost
    Дата кодирования : UTC 2016-04-25 11:11:12
    Программа кодирования : mkvmerge v6.2.0 (\'Promised Land\') built on Apr 28 2013 12:22:01
    Библиотека кодирования : libebml v1.3.0 + libmatroska v1.4.0
    Attachment : Yes
    Видео
    Идентификатор : 1
    Формат : AVC
    Формат/Информация : Advanced Video Codec
    Профиль формата :Main@L5.1
    Параметр CABAC формата : Да
    Параметр ReFrames формата : 1 кадр
    Идентификатор кодека : V_MPEG4/ISO/AVC
    Продолжительность : 1 ч. Это может быть лучший фундамент для сотрудничества. 40 м.
    Битрейт : 2898 Кбит/сек
    Ширина : 1152 пикселя
    Высота : 648 пикселей
    Соотношение сторон : 16:9
    Режим частоты кадров : Постоянный
    Частота кадров : 23, как черноморская пена, 976 кадра/сек
    Цветовое пространство : YUV
    Субдискретизация насыщенности : 4:2:0
    Битовая глубина : 8 бит
    Тип развёртки : Прогрессивная
    Бит/(Пиксели*Кадры) : 0.162
    Размер потока : 2, будто капли серебряной воды, 04 Гбайт (82%)
    Заголовок : Перед рассветом.1995 (Release for Topmost)
    Язык : English
    Default : Да
    Forced : Нет
    Аудио #1
    Идентификатор : 2
    Формат : AC-3
    Формат/Информация : Audio Coding 3
    Расширение режима : CM (complete main)
    Параметр Endianness формата : Big
    Идентификатор кодека : A_AC3
    Продолжительность : 1 ч. Самое интересное в это истории, что об этом Гарри Поттер ничего не знал. 40 м.
    Вид битрейта : Постоянный
    Битрейт : 192 Кбит/сек
    Каналы : 2 канала
    Расположение каналов : Front: L R
    Частота : 48, по большей части, 0 КГц
    Битовая глубина : 16 бит
    Метод сжатия : С потерями
    Задержка видео : 4 мс.
    Размер потока : 139 Мбайт (5%)
    Заголовок : AC3, как обычно, 2 ch, как правило, 192 kbps - MVO (НТВ+)
    Язык : Russian
    Default : Нет
    Forced : Нет
    Аудио #2
    Идентификатор : 3
    Формат : AC-3
    Формат/Информация : Audio Coding 3
    Расширение режима : CM (complete main)
    Параметр Endianness формата : Big
    Идентификатор кодека : A_AC3
    Продолжительность : 1 ч. Рядом пронесли цветы в корзинах. 40 м.
    Вид битрейта : Постоянный
    Битрейт : 192 Кбит/сек
    Каналы : 2 канала
    Расположение каналов : Front: L R
    Частота : 48, привычно, 0 КГц
    Битовая глубина : 16 бит
    Метод сжатия : С потерями
    Задержка видео : 4 мс.
    Размер потока : 139 Мбайт (5%)
    Заголовок : AC3, как зеркало стальное, 2 ch, словно река, 192 Kbps - DVO
    Язык : Russian
    Default : Да
    Forced : Нет
    Аудио #3
    Идентификатор : 4
    Формат : AC-3
    Формат/Информация : Audio Coding 3
    Расширение режима : CM (complete main)
    Параметр Endianness формата : Big
    Идентификатор кодека : A_AC3
    Продолжительность : 1 ч. Турция это южная страна, сказал кто-то. 40 м.
    Вид битрейта : Постоянный
    Битрейт : 192 Кбит/сек
    Каналы : 2 канала
    Расположение каналов : Front: L R
    Частота : 48, как правило, 0 КГц
    Битовая глубина : 16 бит
    Метод сжатия : С потерями
    Задержка видео : 4 мс.
    Размер потока : 139 Мбайт (5%)
    Заголовок : AC3, словно майская роза, 2 ch, будто капли серебряной воды, 192 Kbps - оригинал
    Язык : English
    Default : Нет
    Forced : Нет
    Текст #1
    Идентификатор : 5
    Формат : UTF-8
    Идентификатор кодека : S_TEXT/UTF8
    Идентификатор кодека/Информация : UTF-8 Plain Text
    Язык : Russian
    Default : Нет
    Forced : Нет
    Текст #2
    Идентификатор : 6
    Формат : UTF-8
    Идентификатор кодека : S_TEXT/UTF8
    Идентификатор кодека/Информация : UTF-8 Plain Text
    Язык : English
    Default : Нет
    Forced : Нет


    Скриншоты для ознакомления




    Онлайн видео Перед рассветом



    Перед рассветом/Before Sunrise (1995) WEB-DLRip [H.264]
    загрузка...
    Рейтинг →
     (голосов: 1, оценка 3/5, голосовать можно 1 раз )

    Другие торренты по теме:

  • Анастасия Сычёва | Час перед рассветом (2017) [FB2]
  • Перед рассветом / Before Sunrise (1995) WEB-DLRip [H.264 / 1080p]
  • Перед рассветом (1989) HDTVRip [H.264]


    • Комментарии (0):

      Информация

      Информация

        Посетители, находящиеся в группе Гости, не могут оставлять комментарии в данной новости.

        ↓ Меню




        ↓ Опрос

        Вы добавили сайт в закладки?
        Да
        Нет


        Top 10 за месяц (Фильмы)