.
Авторизация | Регистрация
Хочешь лучшие торренты? Добавь свой email!
Добавить

Торрент скачать бесплатно

» » Перед рассветом / Before Sunrise (1995) WEB-DLRip [H.264] торрент скачать бесплатно




    Перед рассветом / Before Sunrise (1995) WEB-DLRip [H.264] торрент скачать бесплатно

    Опубликовал: Админ | Дата: 2-05-2016, 04:00 | Просмотров: 19

    Производство: США, Австрия, Швейцария (Castle Rock Entertainment, Detour Filmproduction, Filmhaus Wien Universa Filmproduktions, Sunrise Production)
    Жанр: Мелодрама
    Режиссер: Ричард Линклейтер

    Актеры
    Итан Хоук, Жюли Дельпи, Андреа Экерт, Ханно Пёшль, Карл Брукшвайгер, Текс Рубиновиц, Эрни Мангольд, Доминик Кастелль, Хаймон Мария Буттингер, Харольд Вайглайн

    Описание

    Молодой американец Джесс знакомится в поезде с красивой француженкой Селин. Они сразу находят много общих тем для разговоров, и Джесс уговаривает Селин сойти вместе с ним в Вене, чтобы провести вместе вечер и ночь, так как наутро он должен улететь домой в Штаты.
    Этой ночью происходит чудо, между мужчиной и женщиной рождается любовь такая сильная, что всё остальное перестаёт иметь значение. Однако неумолимый обратный отсчёт продолжается, до рассвета осталось совсем немного времени, и влюблённые используют каждый драгоценный момент, чтобы узнать друг друга получше, чтобы успеть обменяться всеми своими воспоминаниями, мечтами и нежностью…

    Возраст: 16+ (зрителям, достигшим 16 лет)
    Рейтинг MPAA: R (лицам до 17 лет обязательно присутствие взрослого)
    Продолжительность: 01: 40: 52
    Качество видео: WEB-DLRip
    Перевод: Многоголосый закадровый, двухголосый закадровый
    Язык субтитров: Русский, английский
    Вид субтитров: Вшитые, отключаемые
    Видео: AVC/H.264, 1152х640, ~2898 kbps
    Аудио#1: AC3, 2 ch, 192 Kbps | Русский MVO (НТВ+)
    Аудио#2: AC3, 2 ch, 192 Kbps | Русский DVO
    Аудио#3: AC3, 2 ch, 192 Kbps | Английский (оригинал)
    Код:

    Общее
    Уникальный идентификатор : 235345338824623905705093543422270871817 (0xB10DDD1065543F9E8BDD1847448B9909)
    Полное имя : E:-Перед рассветомПеред рассветом.1995.mkv
    Формат : Matroska
    Версия формата : Version 4/Version 2
    Размер файла : 2, 50 Гбайт
    Продолжительность : 1 ч. Взрывоопасный вопрос, сказал кто то из толпы, к чему не понятно. 40 м.
    Общий поток : 3545 Кбит/сек
    Название фильма : Release for Topmost
    Дата кодирования : UTC 2016-04-25 11:11:12
    Программа кодирования : mkvmerge v6.2.0 (\'Promised Land\') built on Apr 28 2013 12:22:01
    Библиотека кодирования : libebml v1.3.0 + libmatroska v1.4.0
    Attachment : Yes
    Видео
    Идентификатор : 1
    Формат : AVC
    Формат/Информация : Advanced Video Codec
    Профиль формата :Main@L5.1
    Параметр CABAC формата : Да
    Параметр ReFrames формата : 1 кадр
    Идентификатор кодека : V_MPEG4/ISO/AVC
    Продолжительность : 1 ч. 40 м.
    Битрейт : 2898 Кбит/сек
    Ширина : 1152 пикселя
    Высота : 648 пикселей
    Соотношение сторон : 16:9
    Режим частоты кадров : Постоянный
    Частота кадров : 23, 976 кадра/сек
    Цветовое пространство : YUV
    Субдискретизация насыщенности : 4:2:0
    Битовая глубина : 8 бит
    Тип развёртки : Прогрессивная
    Бит/(Пиксели*Кадры) : 0.162
    Размер потока : 2, 04 Гбайт (82%)
    Заголовок : Перед рассветом.1995 (Release for Topmost)
    Язык : English
    Default : Да
    Forced : Нет
    Аудио #1
    Идентификатор : 2
    Формат : AC-3
    Формат/Информация : Audio Coding 3
    Расширение режима : CM (complete main)
    Параметр Endianness формата : Big
    Идентификатор кодека : A_AC3
    Продолжительность : 1 ч. Самое интересное в это истории, что об этом Гарри Поттер ничего не знал. 40 м.
    Вид битрейта : Постоянный
    Битрейт : 192 Кбит/сек
    Каналы : 2 канала
    Расположение каналов : Front: L R
    Частота : 48, 0 КГц
    Битовая глубина : 16 бит
    Метод сжатия : С потерями
    Задержка видео : 4 мс.
    Размер потока : 139 Мбайт (5%)
    Заголовок : AC3, 2 ch, 192 kbps - MVO (НТВ+)
    Язык : Russian
    Default : Нет
    Forced : Нет
    Аудио #2
    Идентификатор : 3
    Формат : AC-3
    Формат/Информация : Audio Coding 3
    Расширение режима : CM (complete main)
    Параметр Endianness формата : Big
    Идентификатор кодека : A_AC3
    Продолжительность : 1 ч. 40 м.
    Вид битрейта : Постоянный
    Битрейт : 192 Кбит/сек
    Каналы : 2 канала
    Расположение каналов : Front: L R
    Частота : 48, 0 КГц
    Битовая глубина : 16 бит
    Метод сжатия : С потерями
    Задержка видео : 4 мс.
    Размер потока : 139 Мбайт (5%)
    Заголовок : AC3, 2 ch, 192 Kbps - DVO
    Язык : Russian
    Default : Да
    Forced : Нет
    Аудио #3
    Идентификатор : 4
    Формат : AC-3
    Формат/Информация : Audio Coding 3
    Расширение режима : CM (complete main)
    Параметр Endianness формата : Big
    Идентификатор кодека : A_AC3
    Продолжительность : 1 ч. 40 м.
    Вид битрейта : Постоянный
    Битрейт : 192 Кбит/сек
    Каналы : 2 канала
    Расположение каналов : Front: L R
    Частота : 48, 0 КГц
    Битовая глубина : 16 бит
    Метод сжатия : С потерями
    Задержка видео : 4 мс.
    Размер потока : 139 Мбайт (5%)
    Заголовок : AC3, 2 ch, 192 Kbps - оригинал
    Язык : English
    Default : Нет
    Forced : Нет
    Текст #1
    Идентификатор : 5
    Формат : UTF-8
    Идентификатор кодека : S_TEXT/UTF8
    Идентификатор кодека/Информация : UTF-8 Plain Text
    Язык : Russian
    Default : Нет
    Forced : Нет
    Текст #2
    Идентификатор : 6
    Формат : UTF-8
    Идентификатор кодека : S_TEXT/UTF8
    Идентификатор кодека/Информация : UTF-8 Plain Text
    Язык : English
    Default : Нет
    Forced : Нет


    Скриншоты для ознакомления




    Онлайн видео Перед рассветом



    Перед рассветом/Before Sunrise (1995) WEB-DLRip [H.264]
    загрузка...
    Рейтинг →
     (голосов: 1, оценка 5/5, голосовать можно 1 раз )

    Другие торренты по теме:

  • Анастасия Сычёва | Час перед рассветом (2017) [FB2]
  • Перед рассветом / Before Sunrise (1995) WEB-DLRip [H.264 / 1080p]
  • Перед рассветом (1989) HDTVRip [H.264]
  • Анастасия Сычёва | Час перед рассветом (2017) [MP3]


    • Комментарии (0):

      Информация

      Информация

        Посетители, находящиеся в группе Гости, не могут оставлять комментарии в данной новости.

        ↓ Меню




        ↓ Опрос

        Вы добавили сайт в закладки?
        Да
        Нет


        Top 10 за месяц (Фильмы)