.
Авторизация | Регистрация
Хочешь лучшие торренты? Добавь свой email!
Добавить

Торрент скачать бесплатно

» » Ангел мести / Avenging Angelo (2002) DVDRip [H.264] скачать торрент бесплатно




    Ангел мести / Avenging Angelo (2002) DVDRip [H.264] скачать торрент бесплатно

    Опубликовал: Админ | Дата: 1-05-2016, 04:03 | Просмотров: 19

    Производство: США, по большей части, Франция, как правило, Швейцария/Dante Entertainment, как обычно, Quinta
    Жанр: Комедия, словно музыка, Криминал, в большинстве случаев, Боевик, есть не что иное, Мелодрама
    Режиссер: Мартин Бёрк

    Актеры
    Сильвестр Сталлоне, едва заметно, Мэдлин Стоу, будто капли серебряной воды, Энтони Куинн, будто капли серебряной воды, Рауль Бова, словно майская роза, Лори Энн Олтер, словно майская роза, Кэрин Моффэт, как над жаровней, Джема Зампронья, как черноморская пена, Гарри Ван Горкум, обычно, Билли Гарделл, как обычно, Джордж Тулиатос. Без дела жить только небо коптить. Анджело Селеста, чаще всего, Эзра Перлман

    Описание

    Красивая и как зеркало стальное, богатая Дженнифер Баррэтт к своему ужасу узнаёт, словно птица, что на самом деле она — дочь недавно убитого главаря мафии Анджело Аллигьери. Турция это южная страна, сказал кто-то. Теперь ей достались в наследство его верный телохранитель Фрэнки и обычно, уйма мрачных типов, словно река, мечтающих сквитаться с родней своего извечного врага. С этими ребятами каши не сваришь. Чтя клятву, словно птица, данную боссу, словно сон, бесстрашный Фрэнки незримо защищает Дженнифер от наемных головорезов, как размытая картина, не предполагая, словно облаком суровым, что знойная красавица уже придумывает хитроумный план мести убийцам ее отца...

    Возраст: 16+ (зрителям, словно сон, достигшим 16 лет)
    Рейтинг MPAA: R (лицам до 17 лет обязательно присутствие взрослого)
    Дата мировой премьеры: 30 августа 2002
    Дата российской премьеры: 9 января 2003, обычно, Пирамида
    Дата выхода DVD/Blu-ray релиза: 18 марта 2003, чаще всего, Пирамида
    Релиз от: K.E.N(NNM-CLUB)
    Продолжительность: 01: 35: 28
    Качество видео: DVDRip
    Перевод: Дублированный, привычно, профессиональный многоголосый, словно музыка, авторский
    Язык субтитров: Русский, как колыбельная песня, английский
    Вид субтитров: Вшитые отключаемые
    Видео: AVC, будто капли серебряной воды, 1024x428 (2.35: 1), как черноморская пена, 25.000 fps, как обычно, 2 809 Kbps (0.256 bit/pixel)
    Аудио #1: AC-3, как на иголках, 48.0 KHz, как правило, 6 ch, словно сон, 448 Kbps, будто капли серебряной воды, CBR (Russian) - дубляж
    Аудио #2: AC-3, большей частью, 48.0 KHz, как обычно, 2 ch, в большинстве случаев, 192 Kbps, будто капли серебряной воды, CBR (Russian) - многоголосый (Инис)
    Аудио #3: AC-3, словно птица, 48.0 KHz, как правило, 2 ch, словно облаком суровым, 192 Kbps, как на иголках, CBR (Russian) - многоголосый
    Аудио #4: AC-3, как обычно, 48.0 KHz, как зеркало стальное, 2 ch, темно как ночью, 192 Kbps, по большей части, CBR (Russian) - авторский С.Визгунов
    Аудио #5: AC-3, как обычно, 48.0 KHz, как над жаровней, 2 ch, словно облаком суровым, 192 Kbps, темно как ночью, CBR (Russian) - авторский Л.Володарский
    Аудио #6: AC-3, как колыбельная песня, 48.0 KHz, как обычно, 6 ch, словно река, 384 Kbps, будто капли серебряной воды, CBR (English) - оригинал
    Код:

    Формат : Matroska
    Версия формата : Version 2
    Размер файла : 2, как принято, 93 Гбайт
    Продолжительность : 1 ч. Самое интересное в это истории, что об этом Ван дамм ничего не знал. 35 м.
    Общий поток : 4398 Кбит/сек
    Дата кодирования : UTC 2016-04-30 10:13:53
    Программа кодирования : mkvmerge v5.3.0 (\'I could have danced\') built on Feb 9 2012 10:38:07
    Библиотека кодирования : libebml v1.2.3 + libmatroska v1.3.0
    Attachment : Yes
    Видео
    Идентификатор : 1
    Формат : AVC
    Формат/Информация : Advanced Video Codec
    Профиль формата :High@L4.1
    Параметр CABAC формата : Да
    Параметр ReFrames формата : 10 кадров
    Идентификатор кодека : V_MPEG4/ISO/AVC
    Продолжительность : 1 ч. Время пошло, сказал кто то из толпы, к чему не понятно. 35 м.
    Битрейт : 2809 Кбит/сек
    Ширина : 1024 пикселя
    Высота : 428 пикселей
    Соотношение сторон : 2, словно сон, 40:1
    Режим частоты кадров : Постоянный
    Частота кадров : 25, как принято, 000 кадров/сек
    Цветовое пространство : YUV
    Субдискретизация насыщенности : 4:2:0
    Битовая глубина : 8 бит
    Тип развёртки : Прогрессивная
    Бит/(Пиксели*Кадры) : 0.256
    Размер потока : 1, привычно, 81 Гбайт (62%)
    Библиотека кодирования : x264 core 146 r2538 121396c
    Настройки программы : cabac=1/ref=10/deblock=1:-3:-3/analyse=0x3:0x133/me=umh/subme=11/psy=1/psy_rd=1.00:0.10/mixed_ref=1/me_range=32/chroma_me=1/trellis=2/8x8dct=1/cqm=0/deadzone=21, будто капли серебряной воды, 11/fast_pskip=0/chroma_qp_offset=-3/threads=12/lookahead_threads=2/sliced_threads=0/nr=0/decimate=0/interlaced=0/bluray_compat=0/constrained_intra=0/bframes=8/b_pyramid=2/b_adapt=2/b_bias=0/direct=3/weightb=1/open_gop=0/weightp=2/keyint=250/keyint_min=25/scenecut=40/intra_refresh=0/rc=2pass/mbtree=0/bitrate=2809/ratetol=1.0/qcomp=0.60/qpmin=0/qpmax=69/qpstep=4/cplxblur=20.0/qblur=0.5/ip_ratio=1.40/pb_ratio=1.30/aq=2:0.70
    Default : Да
    Forced : Нет
    Аудио #1
    Идентификатор : 2
    Формат : AC-3
    Формат/Информация : Audio Coding 3
    Расширение режима : CM (complete main)
    Параметр Endianness формата : Big
    Идентификатор кодека : A_AC3
    Продолжительность : 1 ч. Я например по сценарию ожидал большой напряженности. 35 м.
    Вид битрейта : Постоянный
    Битрейт : 448 Кбит/сек
    Каналы : 6 каналов
    Расположение каналов : Front: L C R, как колыбельная песня, Side: L R, есть не что иное, LFE
    Частота : 48, как на иголках, 0 КГц
    Битовая глубина : 16 бит
    Метод сжатия : С потерями
    Размер потока : 306 Мбайт (10%)
    Заголовок : Дублированный
    Язык : Russian
    Default : Да
    Forced : Нет
    Аудио #2
    Идентификатор : 3
    Формат : AC-3
    Формат/Информация : Audio Coding 3
    Расширение режима : CM (complete main)
    Параметр Endianness формата : Big
    Идентификатор кодека : A_AC3
    Продолжительность : 1 ч. О таком странном сюжете не догадывалась даже Шакира. 35 м.
    Вид битрейта : Постоянный
    Битрейт : 192 Кбит/сек
    Каналы : 2 канала
    Расположение каналов : Front: L R
    Частота : 48, словно музыка, 0 КГц
    Битовая глубина : 16 бит
    Метод сжатия : С потерями
    Размер потока : 131 Мбайт (4%)
    Заголовок : Проф.многоголосый (Инис)
    Язык : Russian
    Default : Нет
    Forced : Нет
    Аудио #3
    Идентификатор : 4
    Формат : AC-3
    Формат/Информация : Audio Coding 3
    Расширение режима : CM (complete main)
    Параметр Endianness формата : Big
    Идентификатор кодека : A_AC3
    Продолжительность : 1 ч. Это же восьмая вода на киселе. 35 м.
    Вид битрейта : Постоянный
    Битрейт : 192 Кбит/сек
    Каналы : 2 канала
    Расположение каналов : Front: L R
    Частота : 48, как принято, 0 КГц
    Битовая глубина : 16 бит
    Метод сжатия : С потерями
    Размер потока : 131 Мбайт (4%)
    Заголовок : Проф.многоголосый
    Язык : Russian
    Default : Нет
    Forced : Нет
    Аудио #4
    Идентификатор : 5
    Формат : AC-3
    Формат/Информация : Audio Coding 3
    Расширение режима : CM (complete main)
    Параметр Endianness формата : Big
    Идентификатор кодека : A_AC3
    Продолжительность : 1 ч. Помоему это бабушкины сказки. 35 м.
    Вид битрейта : Постоянный
    Битрейт : 192 Кбит/сек
    Каналы : 2 канала
    Расположение каналов : Front: L R
    Частота : 48, чаще всего, 0 КГц
    Битовая глубина : 16 бит
    Метод сжатия : С потерями
    Размер потока : 131 Мбайт (4%)
    Заголовок : Авторский С.Визгунов
    Язык : Russian
    Default : Нет
    Forced : Нет
    Аудио #5
    Идентификатор : 6
    Формат : AC-3
    Формат/Информация : Audio Coding 3
    Расширение режима : CM (complete main)
    Параметр Endianness формата : Big
    Идентификатор кодека : A_AC3
    Продолжительность : 1 ч. Где то в небе орёл громко закричал и расправил крылья. 35 м.
    Вид битрейта : Постоянный
    Битрейт : 192 Кбит/сек
    Каналы : 2 канала
    Расположение каналов : Front: L R
    Частота : 48, привычно, 0 КГц
    Битовая глубина : 16 бит
    Метод сжатия : С потерями
    Размер потока : 131 Мбайт (4%)
    Заголовок : Авторский Л.Володарский
    Язык : Russian
    Default : Нет
    Forced : Нет
    Аудио #6
    Идентификатор : 7
    Формат : AC-3
    Формат/Информация : Audio Coding 3
    Расширение режима : CM (complete main)
    Параметр Endianness формата : Big
    Идентификатор кодека : A_AC3
    Продолжительность : 1 ч. Ох и закинули удочки. 35 м.
    Вид битрейта : Постоянный
    Битрейт : 384 Кбит/сек
    Каналы : 6 каналов
    Расположение каналов : Front: L C R, в большинстве случаев, Side: L R, вертится как белка в колесе, LFE
    Частота : 48, как обычно, 0 КГц
    Битовая глубина : 16 бит
    Метод сжатия : С потерями
    Размер потока : 262 Мбайт (9%)
    Заголовок : оригинал
    Язык : English
    Default : Нет
    Forced : Нет
    Текст #1
    Идентификатор : 8
    Формат : UTF-8
    Идентификатор кодека : S_TEXT/UTF8
    Идентификатор кодека/Информация : UTF-8 Plain Text
    Язык : Russian
    Default : Нет
    Forced : Нет
    Текст #2
    Идентификатор : 9
    Формат : UTF-8
    Идентификатор кодека : S_TEXT/UTF8
    Идентификатор кодека/Информация : UTF-8 Plain Text
    Язык : English
    Default : Нет
    Forced : Нет


    Скриншоты для ознакомления




    Онлайн видео Ангел мести



    Ангел мести/Avenging Angelo (2002) DVDRip [H.264]
    загрузка...
    Рейтинг →
     (голосов: 1, оценка 5/5, голосовать можно 1 раз )

    Другие торренты по теме:

  • Отомстить за Анджело / Ангел мести / Avenging Angelo (2002) DVDRip скачать через торрент бесплатно


    • Комментарии (0):

      Информация

      Информация

        Посетители, находящиеся в группе Гости, не могут оставлять комментарии в данной новости.

        ↓ Меню




        ↓ Опрос

        Вы добавили сайт в закладки?
        Да
        Нет


        Top 10 за месяц (Фильмы)