.
Авторизация | Регистрация
Хочешь лучшие торренты? Добавь свой email!
Добавить

Торрент скачать бесплатно

» » Висяки-2 (Вернуть на доследование) (2009) DVDRip (сезон 2, серии 1-32 из 32) торрент скачать бесплатно




    Висяки-2 (Вернуть на доследование) (2009) DVDRip (сезон 2, серии 1-32 из 32) торрент скачать бесплатно

    Опубликовал: Админ | Дата: 30-04-2016, 04:01 | Просмотров: 39

    Производство: Россия/ООО Пирамида
    Жанр: Детектив, Криминал
    Режиссер: Александр Калугин

    Актеры
    Эдуард Флёров, Наталия Просветова, Андрей Вальц, Елена Лагута, Елена Сердюкова, Вячеслав Молоков, Рауль Ганеев, Юлия Цибульникова, Михаил Жигалов, Раиса Рязанова и др.

    Описание

    Управление внутренних дел создает экспериментальный отдел по работе с нераскрытыми делами, по разным причинам осевшими в архивах за отсутствием улик и доказательств. В составе группы — как опытные работники, так и молодые оперативники, только начинающие свою работу в милиции. Им предстоит поднимать и вновь прорабатывать старые дела, в которых появились новые обстоятельства и прослеживается связь с недавно совершенными преступлениями. Главная движущая сила отдела — руководитель Михаил Таранов, прямой в суждениях, отъявленный практик и логик, увлеченный восточными единоборствами, — отобрал в свою команду разных по характеру и статусу людей, которых объединяет фанатичная преданность своему делу. При всей серьезности работы никто из героев не расстается с чувством юмора, не забывает о человечности и о любви, без которой, работая в таком тесном контакте, точно не обойтись...

    Продолжительность: ~ 00: 46: 00 серия
    Качество видео: DVDRip
    Видео: Xvid, 720x400 (16: 9), ~1477 Kbps
    Аудио: AC3, 2 ch, 192 Kbps, CBR
    Код:

    Общее
    Полное имя : D:Мои фильмыVisjaki_S2_Vernut\'_na_dosledovanie_1-32iz32_2009_XviD_DVDRip1.Детский праздник.(1 сер.).avi
    Формат : AVI
    Формат/Информация : Audio Video Interleave
    Размер файла : 555 Мбайт
    Продолжительность : 46 м.
    Общий поток : 1679 Кбит/сек
    Программа кодирования : VirtualDubMod 1.5.4.1 (build 2178/release)
    Библиотека кодирования : VirtualDub build 35491/release
    Видео
    Идентификатор : 0
    Формат : MPEG-4 Visual
    Профиль формата : Advanced Simple@L5
    Параметр BVOP формата : 2
    Параметр QPel формата : Нет
    Параметр GMC формата : Без точки перехода
    Параметр матрицы формата : Default (H.263)
    Идентификатор кодека : XVID
    Идентификатор кодека/Подсказка : XviD
    Продолжительность : 46 м.
    Битрейт : 1477 Кбит/сек
    Ширина : 720 пикселей
    Высота : 400 пикселей
    Соотношение сторон : 16:9
    Частота кадров : 25, 000 кадров/сек
    Цветовое пространство : YUV
    Субдискретизация насыщенности : 4:2:0
    Битовая глубина : 8 бит
    Тип развёртки : Прогрессивная
    Метод сжатия : С потерями
    Бит/(Пиксели*Кадры) : 0.205
    Размер потока : 489 Мбайт (88%)
    Библиотека кодирования : XviD 67
    Аудио
    Идентификатор : 1
    Формат : AC-3
    Формат/Информация : Audio Coding 3
    Расширение режима : CM (complete main)
    Параметр Endianness формата : Big
    Идентификатор кодека : 2000
    Продолжительность : 46 м.
    Вид битрейта : Постоянный
    Битрейт : 192 Кбит/сек
    Каналы : 2 канала
    Расположение каналов : Front: L R
    Частота : 48, 0 КГц
    Частота кадров : 31, 250 кадров/сек (1536 spf)
    Метод сжатия : С потерями
    Размер потока : 63, 5 Мбайт (11%)
    Выравнивание : Соединение по промежуткам
    Продолжительность промежутка : 40 мс. (1, 00 видеокадр)
    Время предзагрузки промежутка : 512 мс.


    Скриншоты для ознакомления




    Онлайн видео Висяки



    Висяки-2 (Вернуть на доследование) (2009) DVDRip (сезон 2, серии 1-32 из 32)
    загрузка...
    Рейтинг →
     (голосов: 1, оценка 5/5, голосовать можно 1 раз )

    Другие торренты по теме:

  • Висяки (2008) DVDRip (сезон 1, серии 1-32 из 32)


    • Комментарии (0):

      Информация

      Информация

        Посетители, находящиеся в группе Гости, не могут оставлять комментарии в данной новости.

        ↓ Меню




        ↓ Опрос

        Вы добавили сайт в закладки?
        Да
        Нет


        Top 10 за месяц (Фильмы)