.
Авторизация | Регистрация
Хочешь лучшие торренты? Добавь свой email!
Добавить

Торрент скачать бесплатно

» » Флэш / The Flash (2015) HDTV [H.264 / 720p-LQ] (сезон 2, серия 19 из 20) [EN / RU, EN SUB] торрент скачать бесплатно




    Флэш / The Flash (2015) HDTV [H.264 / 720p-LQ] (сезон 2, серия 19 из 20) [EN / RU, EN SUB] торрент скачать бесплатно

    Опубликовал: Админ | Дата: 30-04-2016, 04:01 | Просмотров: 18

    Производство: США
    Жанр: Драма, Приключения, Фантастика
    Режиссер: Дэвид Наттер

    Актеры
    Грант Гастин, Кэндис Паттон, Даниэль Панабэйкер, Рик Коснетт, Карлос Вальдес, Том Кавана, Джесси Л. Мартин, Кейнан Лонсдейл

    Описание

    В детстве Барри Аллен стал свидетелем убийства своей матери, в котором несправедливо обвинили его отца. Работая судмедэкспертом, Аллен пытается раскрыть правду об убийстве матери, что приводит его к ускорителю частиц Харрисона Уэллса. После взрыва ускорителя частиц в Аллена попадает молния, из-за чего он впадает в кому на 9 месяцев. Проснувшись, он узнаёт, что имеет способность двигаться на сверхчеловеческих скоростях. О таком странном сюжете не догадывалась даже Ангела Меркель. Но он не единственный, кто получил сверхспособности.

    Возраст: этот продукт не был классифицирован
    Рейтинг MPAA: этот продукт не был классифицирован
    Релиз от: ettv
    Продолжительность: 00: 43: 00
    Качество видео: HDTVRip
    Перевод: Отсутствует
    Язык озвучки: Английский
    Вид субтитров: Отдельным файлом
    Язык субтитров: Русский, Английский
    Видео: AVC/H.264, 1280х720, ~2163 Kbps
    Аудио: AC3, 6 ch, 384 Kbps
    Код:

    Уникальный идентификатор : 324038997260738156032761178396144075840 (0xF3C7A40B4BD63EA4C54562AD80DE8440)
    Полное имя : D:flashThe.Flash.2014.S02E19.720p.HDTV.X264-DIMENSION[ettv].mkv
    Формат : Matroska
    Версия формата : Version 4/Version 2
    Размер файла : 774 Мбайт
    Продолжительность : 42 м.
    Общий поток : 2549 Кбит/сек
    Дата кодирования : UTC 2016-04-26 23:26:40
    Программа кодирования : mkvmerge v8.4.0 (\'A better way to fly\') 64bit
    Библиотека кодирования : libebml v1.3.1 + libmatroska v1.4.2
    Видео
    Идентификатор : 1
    Формат : AVC
    Формат/Информация : Advanced Video Codec
    Профиль формата :High@L4.1
    Параметр CABAC формата : Да
    Параметр ReFrames формата : 8 кадров
    Идентификатор кодека : V_MPEG4/ISO/AVC
    Продолжительность : 42 м.
    Битрейт : 2163 Кбит/сек
    Ширина : 1280 пикселей
    Высота : 720 пикселей
    Соотношение сторон : 16:9
    Режим частоты кадров : Постоянный
    Частота кадров : 23, 976 (24000/1001) кадра/сек
    Цветовое пространство : YUV
    Субдискретизация насыщенности : 4:2:0
    Битовая глубина : 8 бит
    Тип развёртки : Прогрессивная
    Бит/(Пиксели*Кадры) : 0.098
    Размер потока : 657 Мбайт (85%)
    Библиотека кодирования : x264 core 148 r2665 a01e339
    Настройки программы : cabac=1/ref=8/deblock=1:-2:-2/analyse=0x3:0x113/me=umh/subme=9/psy=1/psy_rd=1.00:0.00/mixed_ref=1/me_range=24/chroma_me=1/trellis=1/8x8dct=1/cqm=0/deadzone=21, 11/fast_pskip=0/chroma_qp_offset=-2/threads=18/lookahead_threads=2/sliced_threads=0/nr=0/decimate=1/interlaced=0/bluray_compat=0/constrained_intra=0/bframes=5/b_pyramid=2/b_adapt=2/b_bias=0/direct=3/weightb=1/open_gop=0/weightp=2/keyint=250/keyint_min=23/scenecut=40/intra_refresh=0/rc_lookahead=50/rc=crf/mbtree=1/crf=18.0/qcomp=0.60/qpmin=0/qpmax=69/qpstep=4/ip_ratio=1.40/aq=1:1.00
    Язык : English
    Default : Да
    Forced : Нет
    Аудио
    Идентификатор : 2
    Формат : AC-3
    Формат/Информация : Audio Coding 3
    Расширение режима : CM (complete main)
    Параметр Endianness формата : Big
    Идентификатор кодека : A_AC3
    Продолжительность : 42 м.
    Вид битрейта : Постоянный
    Битрейт : 384 Кбит/сек
    Каналы : 6 каналов
    Расположение каналов : Front: L C R, Side: L R, LFE
    Частота : 48, 0 КГц
    Частота кадров : 31, 250 кадров/сек (1536 spf)
    Метод сжатия : С потерями
    Размер потока : 117 Мбайт (15%)
    Default : Да
    Forced : Нет


    Скриншоты для ознакомления




    Онлайн видео Флэш



    Флэш/The Flash (2015) HDTV [H.264/720p-LQ] (сезон 2, серия 19 из 20) [EN/RU, EN SUB]
    загрузка...
    Рейтинг →
     (голосов: 1, оценка 3/5, голосовать можно 1 раз )

    Другие торренты по теме:

  • Флэш / The Flash (2017) WEBRip [H.264 / 720p-LQ] (сезон 4, серии 1-5 из 23) LostFilm (обновляемая)
  • Флэш / The Flash (2014) WEB-DL [H.264 / 720p-LQ] (Сезон 1, серия 1 из 13) BaibaKo (обновляемая)
  • Флэш / The Flash (2014) WEB-DLRip (сезон 1, серии 1 из 13) BaibaKo (обновляемая)
  • Флэш (The Flash) / (Сезон 1, серия 1 из 13) BaibaKo (2014) [MP4|720x400] <WEB-DLRip H.264>
  • Флэш (The Flash) / (Сезон 1, серия 1 из 13) LostFilm (2014) [MP4|1280x718] <WEB-DL H.264>
  • Флэш / The Flash (2014) WEB-DLRip (сезон 1, серии 1-2 из 13) LostFilm (обновляемая) скачать через торрент бесплатно
  • Флэш / The Flash (2014) WEB-DLRip (сезон 1, серии 1-2 из 13) NewStudio (обновляемая) скачать через торрент бесплатно
  • Флэш / The Flash (2014) WEB-DL [H.264 / 720p-LQ] (сезон 1, серии 1-8 из 23) LostFilm (обновляемая)


    • Комментарии (0):

      Информация

      Информация

        Посетители, находящиеся в группе Гости, не могут оставлять комментарии в данной новости.

        ↓ Меню




        ↓ Опрос

        Вы добавили сайт в закладки?
        Да
        Нет


        Top 10 за месяц (Фильмы)