.
Авторизация | Регистрация
Хочешь лучшие торренты? Добавь свой email!
Добавить

Торрент скачать бесплатно

» » Легенды завтрашнего дня / DCs Legends of Tomorrow (2016) HDTV [H.264 / 720p-LQ] (сезон 1, серия 12-13 из 16) [EN / RU, EN SUB] торрент скачать бесплатно




    Легенды завтрашнего дня / DCs Legends of Tomorrow (2016) HDTV [H.264 / 720p-LQ] (сезон 1, серия 12-13 из 16) [EN / RU, EN SUB] торрент скачать бесплатно

    Опубликовал: Админ | Дата: 30-04-2016, 04:01 | Просмотров: 36

    Производство: США/Berlanti Productions, Bonanza Productions, DC Entertainment
    Жанр: Драма, Боевик, Фантастика
    Режиссер: Дермотт Даунс, Грегори Смит, Глен Винтер

    Актеры
    Виктор Гарбер, Брэндон Раут, Кейти Лотц, Артур Дарвилл, Сиара Рене, Франц Драмех, Доминик Пёрселл, Уэнтуорт Миллер, Фальк Хенчель

    Описание

    Путешественник во времени Рип Хантер возвращается назад во времени, чтобы в наше время собрать команду современных супергероев и суперзлодеев с целью остановить Вандала Сэвиджа, стремящегося разрушить мир и само время

    Дата мировой премьеры: 21.01.2016
    Релиз от: ettv
    Продолжительность: 00: 43: 00
    Качество видео: HDTV
    Перевод: Отсутствует
    Язык озвучки: Английский
    Вид субтитров: Отдельным файлом
    Язык субтитров: Русский, Английский
    Видео: AVC/H.264, 1280х720, ~2531 Kbps
    Аудио: AC3, 6 ch, 384 Kbps
    Код:

    Уникальный идентификатор : 231344013334403456183238058375104619947 (0xAE0B3C7C6C4BA740A7C0BF064C66E5AB)
    Полное имя : D:DCs.Legends.of.Tomorrow.S01E12.720p.HDTV.X264-DIMENSION[ettv]DCs.Legends.of.Tomorrow.S01E12.720p.HDTV.X264-DIMENSION[ettv].mkv
    Формат : Matroska
    Версия формата : Version 2
    Размер файла : 903 Мбайт
    Продолжительность : 42 м.
    Общий поток : 2974 Кбит/сек
    Дата кодирования : UTC 2016-04-21 21:48:30
    Программа кодирования : mkvmerge v3.1.0 (\'Happy up here\') built on Jan 19 2010 12:09:24
    Библиотека кодирования : libebml v0.7.9 + libmatroska v0.8.1
    Видео
    Идентификатор : 1
    Формат : AVC
    Формат/Информация : Advanced Video Codec
    Профиль формата :High@L4.1
    Параметр CABAC формата : Да
    Параметр ReFrames формата : 8 кадров
    Идентификатор кодека : V_MPEG4/ISO/AVC
    Продолжительность : 42 м.
    Битрейт : 2531 Кбит/сек
    Ширина : 1280 пикселей
    Высота : 720 пикселей
    Соотношение сторон : 16:9
    Режим частоты кадров : Постоянный
    Частота кадров : 23, 976 (24000/1001) кадра/сек
    Цветовое пространство : YUV
    Субдискретизация насыщенности : 4:2:0
    Битовая глубина : 8 бит
    Тип развёртки : Прогрессивная
    Бит/(Пиксели*Кадры) : 0.115
    Размер потока : 768 Мбайт (85%)
    Библиотека кодирования : x264 core 148 r2665 a01e339
    Настройки программы : cabac=1/ref=8/deblock=1:-2:-2/analyse=0x3:0x113/me=umh/subme=9/psy=1/psy_rd=1.00:0.00/mixed_ref=1/me_range=24/chroma_me=1/trellis=1/8x8dct=1/cqm=0/deadzone=21, 11/fast_pskip=0/chroma_qp_offset=-2/threads=18/lookahead_threads=2/sliced_threads=0/nr=0/decimate=1/interlaced=0/bluray_compat=0/constrained_intra=0/bframes=5/b_pyramid=2/b_adapt=2/b_bias=0/direct=3/weightb=1/open_gop=0/weightp=2/keyint=250/keyint_min=23/scenecut=40/intra_refresh=0/rc_lookahead=50/rc=crf/mbtree=1/crf=18.0/qcomp=0.60/qpmin=0/qpmax=69/qpstep=4/ip_ratio=1.40/aq=1:1.00
    Язык : English
    Default : Нет
    Forced : Нет
    Аудио
    Идентификатор : 2
    Формат : AC-3
    Формат/Информация : Audio Coding 3
    Расширение режима : CM (complete main)
    Параметр Endianness формата : Big
    Идентификатор кодека : A_AC3
    Продолжительность : 42 м.
    Вид битрейта : Постоянный
    Битрейт : 384 Кбит/сек
    Каналы : 6 каналов
    Расположение каналов : Front: L C R, Side: L R, LFE
    Частота : 48, 0 КГц
    Частота кадров : 31, 250 кадров/сек (1536 spf)
    Метод сжатия : С потерями
    Задержка видео : 24 мс.
    Размер потока : 117 Мбайт (13%)
    Default : Да
    Forced : Нет


    Скриншоты для ознакомления




    Онлайн видео Легенды завтрашнего дня



    Легенды завтрашнего дня/DCs Legends of Tomorrow (2016) HDTV [H.264/720p-LQ] (сезон 1, серия 12-13 из 16) [EN/RU, EN SUB]
    загрузка...
    Рейтинг →
     (голосов: 1, оценка 5/5, голосовать можно 1 раз )

    Другие торренты по теме:

  • Легенды завтрашнего дня / DCs Legends of Tomorrow (2016) WEB-DL [H.264 / 1080p-LQ] (сезон 1, серии 1 из 16) LostFilm (обновляемая)
  • Легенды завтрашнего дня / DCs Legends of Tomorrow (2016) WEB-DLRip (сезон 1, серии 1 из 16) LostFilm (обновляемая)
  • Легенды завтрашнего дня / DCs Legends of Tomorrow (2016) WEB-DLRip (сезон 1, серии 1 из 16) BaibaKo (обновляемая)
  • Легенды завтрашнего дня / DCs Legends of Tomorrow (2016) WEB-DLRip (сезон 1, серии 1 из 16) NewStudio (обновляемая)
  • Легенды завтрашнего дня / DCs Legends of Tomorrow (2016) WEB-DL [H.264] (сезон 1, серии 1 из 16) LostFilm [MP4|1280x718] (обновляемая)
  • Легенды завтрашнего дня / DCs Legends of Tomorrow (2016) WEB-DL [H.264 / 720p-LQ] (сезон 1, серии 1-4 из 16) BaibaKo (обновляемая)
  • Легенды завтрашнего дня / DCs Legends of Tomorrow (2016) WEB-DL [H.264 / 720p-LQ] (сезон 1, серии 1-15 из 16) BaibaKo (обновляемая)
  • Легенды завтрашнего дня / DCs Legends of Tomorrow (2016) WEB-DL [H.264] (сезон 2, серии 1-5 из 17) LostFilm [MP4|1280x718]


    • Комментарии (0):

      Информация

      Информация

        Посетители, находящиеся в группе Гости, не могут оставлять комментарии в данной новости.

        ↓ Меню




        ↓ Опрос

        Вы добавили сайт в закладки?
        Да
        Нет


        Top 10 за месяц (Фильмы)