.
Авторизация | Регистрация
Хочешь лучшие торренты? Добавь свой email!
Добавить

Торрент скачать бесплатно

» » Дурак (2014) BDRemux [H.264 / 1080p] торрент скачать бесплатно




    Дурак (2014) BDRemux [H.264 / 1080p] торрент скачать бесплатно

    Опубликовал: Админ | Дата: 30-04-2016, 04:00 | Просмотров: 21

    Производство: Россия, Rock Film Studio
    Жанр: Драма
    Режиссер: Юрий Быков
    Продюсеры: Алексей Учитель, Кира Саксаганская, Елена Быстрова

    Актеры
    Артем Быстров, Наталья Суркова, Юрий Цурило, Борис Невзоров, Кирилл Полухин, Роман Майоров, Иван Брэд, Александр Коршунов, Ольга Самошина, Дарья Мороз

    Описание

    Жизни 800 человек общежития висят буквально на волоске из-за безразличия местных властей. В любую секунду здание может рухнуть. И кто бы мог подумать, что судьбы людей окажутся в руках простого сантехника. Но удастся ли ему что-то изменить и предотвратить катастрофу?

    Возраст: 16+ (зрителям, достигшим 16 лет)
    Дата выхода DVD/Blu-ray релиза: 22 января 2015, CP Дистрибуция
    Дата мировой премьеры: 9 августа 2014
    Дата российской премьеры: 11 декабря 2014, Премиум Фильм
    Продолжительность: 02: 00: 52
    Перевод: Не требуется (Русский)
    Качество видео: BDRemux 1080p
    Язык субтитров: Английский
    Вид субтитров: Вшитые отключаемые
    Видео: AVC, 1920x1080 (16: 9), 24.000 fps, 22.3 Mbps (0.449 bit/pixel)
    Аудио: DTS MA/Core, 48.0 KHz, 2 ch, 2 048 Kbps/1 510 Kbps, VBR (Russian)
    Код:

    General
    Unique ID : 222636528880852350155377658352512973958 (0xA77E3C5B54D748B3AC1F91A7584ABC86)
    Complete name : C:Durak.2014.BDRemux.1080p.NNMCLUB.mkv
    Format : Matroska
    Format version : Version 4/Version 2
    File size : 20.6 GiB
    Duration : 2h 0mn
    Overall bit rate mode : Variable
    Overall bit rate : 24.4 Mbps
    Encoded date : UTC 2016-04-29 00:27:38
    Writing application : mkvmerge v9.1.0 (\'Little Earthquakes\') 64bit
    Writing library : libebml v1.3.3 + libmatroska v1.4.4
    Video
    ID : 1
    Format : AVC
    Format/Info : Advanced Video Codec
    Format profile :High@L4.1
    Format settings, CABAC : Yes
    Format settings, ReFrames : 4 frames
    Codec ID : V_MPEG4/ISO/AVC
    Duration : 2h 0mn
    Bit rate mode : Variable
    Bit rate : 22.3 Mbps
    Maximum bit rate : 38.0 Mbps
    Width : 1 920 pixels
    Height : 1 080 pixels
    Display aspect ratio : 16:9
    Frame rate mode : Constant
    Frame rate : 24.000 fps
    Color space : YUV
    Chroma subsampling : 4:2:0
    Bit depth : 8 bits
    Scan type : Progressive
    Bits/(Pixel*Frame) : 0.448
    Stream size : 18.8 GiB (92%)
    Language : Russian
    Default : Yes
    Forced : No
    Audio
    ID : 2
    Format : DTS
    Format/Info : Digital Theater Systems
    Format profile : MA/Core
    Mode : 16
    Format settings, Endianness : Big
    Codec ID : A_DTS
    Duration : 2h 0mn
    Bit rate mode : Variable/Constant
    Bit rate : 2 048 Kbps/1 509 Kbps
    Channel(s) : 2 channels
    Channel positions : Front: L R
    Sampling rate : 48.0 KHz
    Frame rate : 93.750 fps (512 spf)
    Bit depth : 24 bits
    Compression mode : Lossless/Lossy
    Stream size : 1.73 GiB (8%)
    Language : Russian
    Default : Yes
    Forced : No
    Text
    ID : 3
    Format : PGS
    Muxing mode : zlib
    Codec ID : S_HDMV/PGS
    Codec ID/Info : Picture based subtitle format used on BDs/HD-DVDs
    Duration : 1h 57mn
    Bit rate : 20.9 Kbps
    Count of elements : 2044
    Stream size : 17.6 MiB (0%)
    Language : English
    Default : No
    Forced : No


    Скриншоты для ознакомления




    Онлайн видео Дурак (2014) BDRemux [H.264



    Дурак (2014) BDRemux [H.264/1080p]
    загрузка...
    Рейтинг →
     (голосов: 1, оценка 3/5, голосовать можно 1 раз )

    Другие торренты по теме:

  • Дурак (2014) WEB-DL [H.264 / 720p-LQ]
  • Дурак (2014) WEB-DLRip
  • Дурак (2014) WEB-DL [H.264 / 1080p-LQ]
  • Дурак (2014) WEB-DLRip [H.264] скачать через торрент бесплатно
  • Дурак (2014) WEB-DLRip [H.264] скачать через торрент бесплатно
  • Дурак (2014) WEB-DLRip [576p] iPad скачать через торрент бесплатно
  • Как преуспеть в делах, когда ты дурак и плакса / Comment reussir... quand on est con et pleurnichard (1974) DVDRip [H.264] скачать через торрент бесплатно
  • Дурак (2014) BDRip [H.264 / 1080p]


    • Комментарии (0):

      Информация

      Информация

        Посетители, находящиеся в группе Гости, не могут оставлять комментарии в данной новости.

        ↓ Меню




        ↓ Опрос

        Вы добавили сайт в закладки?
        Да
        Нет


        Top 10 за месяц (Фильмы)