.
Авторизация | Регистрация
Хочешь лучшие торренты? Добавь свой email!
Добавить

Торрент скачать бесплатно

» » Дом игрушек Пи-ви / Pee-wees Big Holiday (2016) HDRip [EN / EN, RU SUB] торрент скачать бесплатно




    Дом игрушек Пи-ви / Pee-wees Big Holiday (2016) HDRip [EN / EN, RU SUB] торрент скачать бесплатно

    Опубликовал: Админ | Дата: 30-04-2016, 04:00 | Просмотров: 45

    Производство: США, Pee-wee Pictures Apatow Productions
    Жанр: Комедия, Приключения
    Режиссер: Джон Ли

    Актеры
    Пол Рубенс, Джордан Блэк, Даг Кокс, Линда Портер, Моника Хоран, Брайан Палермо, Кэтерин Вандерлинден, Тара Бак, Джон Х. Майер, Ричард Рили

    Описание

    Возвращение культового комедийного персонажа, невзрослеющего весельчака Пи-Ви. На сей раз его ждет таинственная и роковая встреча с незнакомцем, которая положит начало приключенческой истории о судьбе и дружбе.

    Продолжительность: 01: 29: 07
    Качество видео: HDRip
    Перевод: Отсутствует
    Язык озвучки: Английский
    Язык субтитров: Русский, Английский
    Вид субтитров: Отдельным файлом
    Видео: Xvid, 720x384, ~2021 Kbps
    Аудио: AC3, 2 ch, 192 Kbps
    Код:

    Общее
    Полное имя : D:Pee-Wees.Big.Holiday.V2.2016.HDRip.XviD.AC3-EVOPee-Wees.Big.Holiday.2016.HDRip.XviD.AC3-EVO.avi
    Формат : AVI
    Формат/Информация : Audio Video Interleave
    Профиль формата : OpenDML
    Настройки формата : rec
    Размер файла : 1, 38 Гбайт
    Продолжительность : 1 ч. 29 м.
    Общий поток : 2219 Кбит/сек
    Программа кодирования : AVI-Mux GUI 1.17.8.3, Feb 16 201019:42:50
    Видео
    Идентификатор : 0
    Формат : MPEG-4 Visual
    Профиль формата : Advanced Simple@L5
    Параметр BVOP формата : 2
    Параметр QPel формата : Нет
    Параметр GMC формата : Без точки перехода
    Параметр матрицы формата : Default (H.263)
    Режим смешивания : Сжатый битовый поток
    Идентификатор кодека : XVID
    Идентификатор кодека/Подсказка : XviD
    Продолжительность : 1 ч. 29 м.
    Битрейт : 2021 Кбит/сек
    Ширина : 720 пикселей
    Высота : 384 пикселя
    Соотношение сторон : 1, 85:1
    Частота кадров : 23, 976 (23976/1000) кадра/сек
    Цветовое пространство : YUV
    Субдискретизация насыщенности : 4:2:0
    Битовая глубина : 8 бит
    Тип развёртки : Прогрессивная
    Метод сжатия : С потерями
    Бит/(Пиксели*Кадры) : 0.305
    Размер потока : 1, 26 Гбайт (91%)
    Библиотека кодирования : XviD 66
    Аудио
    Идентификатор : 1
    Формат : AC-3
    Формат/Информация : Audio Coding 3
    Расширение режима : CM (complete main)
    Параметр Endianness формата : Big
    Идентификатор кодека : 2000
    Продолжительность : 1 ч. 29 м.
    Вид битрейта : Постоянный
    Битрейт : 192 Кбит/сек
    Каналы : 2 канала
    Расположение каналов : Front: L R
    Частота : 48, 0 КГц
    Частота кадров : 31, 250 кадров/сек (1536 spf)
    Метод сжатия : С потерями
    Размер потока : 122 Мбайт (9%)
    Выравнивание : Соединение по промежуткам
    Продолжительность промежутка : 64 мс. Самое интересное в это истории, что об этом Китай ничего не знал. (1, 53 видеокадра)
    Время предзагрузки промежутка : 192 мс.
    Заголовок : ac3


    Скриншоты для ознакомления




    Онлайн видео Дом игрушек Пи-ви



    Дом игрушек Пи-ви/Pee-wees Big Holiday (2016) HDRip [EN/EN, RU SUB]
    загрузка...
    Рейтинг →
     (голосов: 1, оценка 4/5, голосовать можно 1 раз )

    Другие торренты по теме:

  • Дом игрушек Пи-ви / Pee-wees Big Holiday (2016) WEB-DLRip [VO]


    • Комментарии (0):

      Информация

      Информация

        Посетители, находящиеся в группе Гости, не могут оставлять комментарии в данной новости.

        ↓ Меню




        ↓ Опрос

        Вы добавили сайт в закладки?
        Да
        Нет


        Top 10 за месяц (Фильмы)