.
Авторизация | Регистрация
Хочешь лучшие торренты? Добавь свой email!
Добавить

Торрент скачать бесплатно

» » Срок жизни / Term Life (2016) WEB-DL [H.264 / 720p-LQ] [EN / EN Sub] торрент скачать бесплатно




    Срок жизни / Term Life (2016) WEB-DL [H.264 / 720p-LQ] [EN / EN Sub] торрент скачать бесплатно

    Опубликовал: Админ | Дата: 30-04-2016, 04:00 | Просмотров: 36

    Производство: США, PalmStar Media, PenLife Media, WWE Studios, Wild West Picture Show Productions
    Жанр: Драма, Криминал
    Режиссер: Питер Биллингсли

    Актеры
    Хейли Стайнфелд, Винс Вон, Ши Уигхэм, Билл Пэкстон, Хорди Молья, Анна Колвелл, Джонатан Бэнкс, Джошуа Микель, Дерек Робертс, Сандхия Чэндел, ...

    Описание

    Фильм рассказывает о персонаже по имени Ник Бэрроу, который планирует кражи, а потом продаёт эти проекты тому, кто больше заплатит. Но наступает чёрный день — один из замыслов Ника с треском проваливается, и теперь его смерти жаждут все, начиная с главарей мафии и заканчивая оборотнями в погонах.
    Поняв, что от судьбы не убежишь, герой решает сделать напоследок что-то хорошее — он страхует жизнь на миллион долларов, чтобы после смерти обеспечить свою дочь. Не учитывает Ник только одного — страховка начнет действовать лишь через 21 день, в течение которых герою необходимо оставаться в живых. А это в его ситуации совсем не просто.

    Возраст: 16+ (зрителям, достигшим 16 лет)
    Рейтинг MPAA: R (лицам до 17 лет обязательно присутствие взрослого)
    Премьера (мир): 6 апреля 2016
    Продолжительность: 01: 32: 44
    Качество видео: WEB-DL 720p
    Перевод: Отсутствует
    Язык озвучки: Английский
    Язык субтитров: Английский
    Вид субтитров: Вшитые отключаемые
    Видео: AVC, 1280x532 (2.40: 1), 23.976 fps, 3 958 Kbps (0.242 bit/pixel)
    Аудио: AC-3, 48.0 KHz, 6 ch, 384 Kbps, CBR (English)
    Код:

    General
    Unique ID : 223692786591977560018057714528357544174 (0xA849A9E1F52DB1ACA2E64737152970EE)
    Complete name : E:VideoTerm.Life.2016.720p.WEB-DL.DD5.1.H.264-PLAYNOW.mkv
    Format : Matroska
    Format version : Version 4/Version 2
    File size : 2.87 GiB
    Duration : 1h 32mn
    Overall bit rate : 4 430 Kbps
    Encoded date : UTC 2016-04-29 04:57:26
    Writing application : mkvmerge v6.7.0 (\'Back to the Ground\') 64bit built on Jan 8 2014 15:10:52
    Writing library : libebml v1.3.0 + libmatroska v1.4.1
    Video
    ID : 3
    Format : AVC
    Format/Info : Advanced Video Codec
    Format profile :Main@L3.1
    Format settings, CABAC : No
    Format settings, ReFrames : 2 frames
    Codec ID : V_MPEG4/ISO/AVC
    Duration : 1h 32mn
    Bit rate : 3 958 Kbps
    Width : 1 280 pixels
    Height : 532 pixels
    Display aspect ratio : 2.40:1
    Frame rate mode : Constant
    Frame rate : 23.976 fps
    Color space : YUV
    Chroma subsampling : 4:2:0
    Bit depth : 8 bits
    Scan type : Progressive
    Bits/(Pixel*Frame) : 0.242
    Stream size : 2.56 GiB (89%)
    Language : English
    Default : Yes
    Forced : No
    Color range : Limited
    Color primaries : BT.709
    Transfer characteristics : BT.709
    Matrix coefficients : BT.709
    Audio
    ID : 2
    Format : AC-3
    Format/Info : Audio Coding 3
    Mode extension : CM (complete main)
    Format settings, Endianness : Big
    Codec ID : A_AC3
    Duration : 1h 32mn
    Bit rate mode : Constant
    Bit rate : 384 Kbps
    Channel(s) : 6 channels
    Channel positions : Front: L C R, Side: L R, LFE
    Sampling rate : 48.0 KHz
    Frame rate : 31.250 fps (1536 spf)
    Compression mode : Lossy
    Stream size : 255 MiB (9%)
    Language : English
    Default : Yes
    Forced : No
    Text
    ID : 1
    Format : UTF-8
    Codec ID : S_TEXT/UTF8
    Codec ID/Info : UTF-8 Plain Text
    Language : English
    Default : No
    Forced : No
    Menu
    00:00:00.000 : en:1
    00:07:31.000 : en:2
    00:13:05.000 : en:3
    00:19:26.000 : en:4
    00:24:39.000 : en:5
    00:28:02.000 : en:6
    00:32:50.000 : en:7
    00:37:35.000 : en:8
    00:42:13.000 : en:9
    00:46:57.000 : en:10
    00:50:43.000 : en:11
    00:55:20.000 : en:12
    00:58:38.000 : en:13
    01:03:44.000 : en:14
    01:07:58.000 : en:15
    01:14:38.000 : en:16
    01:19:46.000 : en:17
    01:21:30.000 : en:18
    01:25:30.000 : en:19
    01:27:39.000 : en:20


    Скриншоты для ознакомления




    Онлайн видео Срок жизни



    Срок жизни/Term Life (2016) WEB-DL [H.264/720p-LQ] [EN/EN Sub]
    загрузка...
    Рейтинг →
     (голосов: 1, оценка 3/5, голосовать можно 1 раз )

    Другие торренты по теме:

  • Срок жизни / Term Life (2016) WEB-DL [H.264 / 720p-LQ] [EN]
  • Срок жизни / Term Life (2016) WEB-DL [H.264 / 1080p-LQ] [VO]
  • Срок жизни / Term Life (2016)
  • Срок жизни / Term Life (2016) WEB-DL [H.264 / 720p-LQ]
  • Срок жизни / Term Life (2016) WEB-DLRip
  • Срок жизни / Term Life (2016) WEB-DL [H.264 / 1080p-LQ]
  • Срок жизни / Term Life (2016) BDRip [H.264 / 1080p]
  • Срок жизни / Term Life (2016) BDRemux [H.264 / 1080p] [EN / EN Sub]


    • Комментарии (0):

      Информация

      Информация

        Посетители, находящиеся в группе Гости, не могут оставлять комментарии в данной новости.

        ↓ Меню




        ↓ Опрос

        Вы добавили сайт в закладки?
        Да
        Нет


        Top 10 за месяц (Фильмы)