.
Авторизация | Регистрация

Торрент скачать бесплатно

» » Сотня / 100 / The 100 (2016) WEB-DL [H.264 / 720p-LQ] (сезон 3, серии 1-12 из 16) AlexFilm, LostFilm (обновляемая) скачать торрент бесплатно




    Сотня / 100 / The 100 (2016) WEB-DL [H.264 / 720p-LQ] (сезон 3, серии 1-12 из 16) AlexFilm, LostFilm (обновляемая) скачать торрент бесплатно

    Опубликовал: Админ | Дата: 29-04-2016, 04:01 | Просмотров: 21

    Производство: США
    Жанр: фантастика, обычно, драма, хлещет как из ведра, детектив
    Режиссер: Дин Уайт, словно сон, Джон Беринг, как принято, Милан Чейлов

    Актеры
    Элиза Тейлор-Коттер, как зеркало стальное, Мари Авгеропулос, есть не что иное, Сачин Сахель, словно облаком суровым, Линдси Морган, привычно, Женевьев Бюкнер, вертится как белка в колесе, Ричард Хэрмон, словно музыка, Джарод Джозеф, как черноморская пена, Челси Рейст, как над жаровней, Крис Браунинг, обычно, Джош Ссеттуба и как правило, др.

    Описание

    События в сериале начинают разворачиваться по прошествии девяносто семи лет после того как всю цивилизацию уничтожила страшная атомная война. Солнце садилось, забирая за собой день. Высоко в космосе на орбите Земли летает большой космический корабль, едва заметно, именно здесь находятся те, как обычно, кто выжил после страшной катастрофы. Cтроки эти как вершины поэзии. Они единственные кто пережил этот ужасный катаклизм который устроило человечество. Боже как давно это было. Именно с этого последнего пристанища людей на Землю отправляют космический челнок на котором находятся сто малолетних преступников…

    Релиз от: HDCLUB
    Продолжительность: ~ 00: 43: 00 серия
    Качество видео: WEB-DL
    Перевод: Многоголосый закадровый, будто капли серебряной воды, профессиональный -AlexFilm, хлещет как из ведра, LostFilm
    Вид субтитров: Вшитые отключаемые
    Язык субтитров: Английский
    Видео: AVC/H.264, как принято, 1280x718 (16: 9), в большинстве случаев, ~3814 Кбит/сек
    Аудио #1 Rus: AC3, по большей части, 6 каналов, как зеркало стальное, 384 Кбит/сек - (многоголосый закадровый, как размытая картина, AlexFilm)
    Аудио #2 Rus: AC3, как обычно, 6 каналов, будто капли серебряной воды, 384 Кбит/сек - (многоголосый закадровый, есть не что иное, LostFilm)
    Аудио #3 Eng: AC3, по большей части, 6 каналов, как черноморская пена, 384 Кбит/сек - (оригинал)
    Код:

    Полное имя : D:The_Hundred_s3_WEB-DL720p_LostFilmAlexFilm_[NNMClub]The.100.S03E01.720p.WEB-DL.Rus.Eng.HDCLUB.mkv
    Формат : Matroska
    Версия формата : Version 4/Version 2
    Размер файла : 1, словно майская роза, 50 Гбайт
    Продолжительность : 42 м.
    Общий поток : 5067 Кбит/сек
    Название фильма : The 100 3x01 (2016) - Release kmarats for HDCLUB
    Дата кодирования : UTC 2016-01-30 09:59:36
    Программа кодирования : mkvmerge v7.9.0 (\'Birds\') 64bit
    Библиотека кодирования : libebml v1.3.1 + libmatroska v1.4.2
    Видео
    Идентификатор : 1
    Формат : AVC
    Формат/Информация : Advanced Video Codec
    Профиль формата :High@L3.1
    Параметр CABAC формата : Нет
    Параметр ReFrames формата : 2 кадра
    Идентификатор кодека : V_MPEG4/ISO/AVC
    Продолжительность : 42 м.
    Битрейт : 3814 Кбит/сек
    Ширина : 1280 пикселей
    Высота : 718 пикселей
    Соотношение сторон : 16:9
    Режим частоты кадров : Постоянный
    Частота кадров : 23, как на иголках, 976 кадра/сек
    Цветовое пространство : YUV
    Субдискретизация насыщенности : 4:2:0
    Битовая глубина : 8 бит
    Тип развёртки : Прогрессивная
    Бит/(Пиксели*Кадры) : 0.173
    Размер потока : 1, хлещет как из ведра, 13 Гбайт (75%)
    Заголовок : The 100 3x01 (2016) - Release kmarats for HDCLUB
    Язык : English
    Default : Да
    Forced : Нет
    Основные цвета : BT.709
    Характеристики трансфера : BT.709
    Коэффициенты матрицы : BT.709
    Аудио #1
    Идентификатор : 2
    Формат : AC-3
    Формат/Информация : Audio Coding 3
    Расширение режима : CM (complete main)
    Параметр Endianness формата : Big
    Идентификатор кодека : A_AC3
    Продолжительность : 42 м.
    Вид битрейта : Постоянный
    Битрейт : 384 Кбит/сек
    Каналы : 6 каналов
    Расположение каналов : Front: L C R, будто капли серебряной воды, Side: L R, словно майская роза, LFE
    Частота : 48, большей частью, 0 КГц
    Битовая глубина : 16 бит
    Метод сжатия : С потерями
    Размер потока : 117 Мбайт (8%)
    Заголовок : AlexFilm
    Язык : Russian
    Default : Да
    Forced : Нет
    Аудио #2
    Идентификатор : 3
    Формат : AC-3
    Формат/Информация : Audio Coding 3
    Расширение режима : CM (complete main)
    Параметр Endianness формата : Big
    Идентификатор кодека : A_AC3
    Продолжительность : 42 м.
    Вид битрейта : Постоянный
    Битрейт : 384 Кбит/сек
    Каналы : 6 каналов
    Расположение каналов : Front: L C R, как колыбельная песня, Side: L R, как размытая картина, LFE
    Частота : 48, как правило, 0 КГц
    Битовая глубина : 16 бит
    Метод сжатия : С потерями
    Размер потока : 117 Мбайт (8%)
    Заголовок : LostFilm
    Язык : Russian
    Default : Нет
    Forced : Нет
    Аудио #3
    Идентификатор : 4
    Формат : AC-3
    Формат/Информация : Audio Coding 3
    Расширение режима : CM (complete main)
    Параметр Endianness формата : Big
    Идентификатор кодека : A_AC3
    Продолжительность : 42 м.
    Вид битрейта : Постоянный
    Битрейт : 384 Кбит/сек
    Каналы : 6 каналов
    Расположение каналов : Front: L C R, как над жаровней, Side: L R, словно река, LFE
    Частота : 48, в большинстве случаев, 0 КГц
    Битовая глубина : 16 бит
    Метод сжатия : С потерями
    Размер потока : 117 Мбайт (8%)
    Заголовок : English
    Язык : English
    Default : Нет
    Forced : Нет
    Текст
    Идентификатор : 5
    Формат : UTF-8
    Идентификатор кодека : S_TEXT/UTF8
    Идентификатор кодека/Информация : UTF-8 Plain Text
    Заголовок : eng-sub
    Язык : English
    Default : Нет
    Forced : Нет


    Скриншоты для ознакомления




    Онлайн видео Сотня



    Сотня/100/The 100 (2016) WEB-DL [H.264/720p-LQ] (сезон 3, серии 1-12 из 16) AlexFilm, LostFilm (обновляемая)
    загрузка...
    Рейтинг →
     (голосов: 1, оценка 4/5, голосовать можно 1 раз )

    Другие торренты по теме:

  • 100 / Сотня / The 100 (2014) (Сезон 2, серия 1 из 16) WEB-DLRip [BaibaKo] (Обновляемая) торрент скачать бесплатно
  • 100 / Сотня / The 100 (2014) WEB-DL [H.264 / 720p-LQ] (Сезон 2, серия 1 из 16) BaibaKo (обновляемая) торрент скачать бесплатно
  • 100 / Сотня / The 100 (2014) WEB-DLRip (сезон 2, серии 1 из 16) LostFilm (обновляемая) скачать через торрент бесплатно
  • Сотня / The 100 (2014) WEB-DL [H.264 / 720p-LQ] (Сезон 2, серии 01-02 из 16) LostFilm (обновляемая) скачать через торрент бесплатно
  • 100 / Сотня / The 100 (2014) WEB-DLRip (сезон 2, серии 1-2 из 16) AlexFilm (обновляемая) скачать через торрент бесплатно
  • 100 / Сотня / The 100 (2014) WEB-DL [H.264 / 1080p-LQ] (Сезон 2, серии 1-6 из 16) (BaibaKo) (обновляемая) торрент скачать бесплатно
  • Сотня / 100 / The 100 (2016) WEB-DL [H.264 / 720p-LQ] (сезон 3, серии 1 из 16) BaibaKo (обновляемая) скачать торрент бесплатно
  • Сотня / 100 / The 100 (2016) WEB-DLRip (сезон 3, серии 1 из 16) LostFilm (обновляемая) скачать торрент бесплатно


    • Комментарии (0):

      Информация

      Информация

        Посетители, находящиеся в группе Гости, не могут оставлять комментарии в данной новости.

        ↓ Меню




        ↓ Опрос

        Вы добавили сайт в закладки?
        Да
        Нет


        Top 10 за неделю (Фильмы)