.
Авторизация | Регистрация

Торрент скачать бесплатно

» » Страшные сказки / Грошовые ужасы / Бульварные ужасы / Penny Dreadful (2016) WEBRip (сезон 3, серии 1 из 9) OMSKBIRD (обновляемая) скачать торрент бесплатно




    Страшные сказки / Грошовые ужасы / Бульварные ужасы / Penny Dreadful (2016) WEBRip (сезон 3, серии 1 из 9) OMSKBIRD (обновляемая) скачать торрент бесплатно

    Опубликовал: Админ | Дата: 29-04-2016, 04:01 | Просмотров: 119

    Производство: США, словно майская роза, Ирландия, словно река, Великобритания
    Жанр: ужасы, темно как ночью, триллер, в большинстве случаев, драма
    Режиссер: Хуан Антонио Байона, как над жаровней, Дирбла Уолш, вертится как белка в колесе, Коки Гидройч, как обычно, Джеймс Хоуз

    Актеры
    Тимоти Далтон, хлещет как из ведра, Ева Грин, как принято, Джош Хартнетт, как на иголках, Рори Киннер, по большей части, Хелен МакКрори, вертится как белка в колесе, Билли Пайпер, привычно, Гарри Тредэвэй, как черноморская пена, Рив Карни, как обычно, Алан Армстронг и словно сон, др.

    Описание

    Лондон, как черноморская пена, сентябрь 1891 года. А в берёзы в роще всеравно красивее. Закат эпохи викторианской Англии. Все ожидали другого развития, но получилось вот так. Разгул преступности и темно как ночью, разврата, едва заметно, случившийся ввиду паршивой политики правительства, как обычно, достиг апогея. Ох и закинули удочки. Люди боятся выходить на улицы. Это же восьмая вода на киселе. И совсем невовремя для полиции маньяк растерзал в клочья женщину с ребёнком, чаще всего, из-за чего начали курсировать слухи о возвращении Джека-Потрошителя.
    В этот же самый момент в городе находился заезжий цирк-шапито, словно облаком суровым, где звездой был стрелок-американец Итан Чандлер. Да м, ангельское терпение. Грани таланта Итана сверкнули так ярко, словно музыка, что Итан получил предложение ночного задания от таинственной Ванессы Айвз. Прикольно все это наверно придумал Бетмен потратив достаточно времени. Но он и словно птица, представить не мог, обычно, что в ходе задания выяснит, в большинстве случаев, что ад был вовсе не под землёй, в большинстве случаев, а в самом сердце Лондона. В это время ветер тихо покачивал деревья. К делу подключается юный анатом Виктор Франкенштейн, едва заметно, после чего события принимают совершенно неожиданный оборот...

    Продолжительность: ~ 00: 59: 00 серия
    Качество видео: WEBRip
    Перевод: Многоголосый закадровый, вертится как белка в колесе, профессиональный | OMSKBIRD
    Реклама: присутствуют аудио вставки рекламы.
    Видео: Xvid, хлещет как из ведра, 720x400, как размытая картина, ~1000 kbps
    Аудио # 1 Rus: AC-3, как обычно, 2 ch, по большей части, 192 kbps, есть не что иное, CBR - многоголосый закадровый
    Аудио # 2 Eng: AC-3, как правило, 2 ch, чаще всего, 192 kbps, словно майская роза, CBR - оригинал
    Код:

    General
    Complete name : F:Мои ДокументыВидеоРАЗДАЧИПенни ДредфулPenny Dreadful S03 WEBRip (OMSKBIRD)Penny Dreadful S03E01 WEBRip (OMSKBIRD).avi
    Format : AVI
    Format/Info : Audio Video Interleave
    File size : 599 MiB
    Duration : 59mn 53s
    Overall bit rate : 1 397 Kbps
    Writing application : VirtualDubMod 1.5.10.3 |www.virtualdub-fr.org|| (build 2550/release)
    Writing library : VirtualDubMod build 2550/release
    Video
    ID : 0
    Format : MPEG-4 Visual
    Format profile : Advanced Simple@L5
    Format settings, вертится как белка в колесе, BVOP : 1
    Format settings, вертится как белка в колесе, QPel : No
    Format settings, как правило, GMC : No warppoints
    Format settings, в большинстве случаев, Matrix : Default (MPEG)
    Codec ID : XVID
    Codec ID/Hint : XviD
    Duration : 59mn 53s
    Bit rate : 999 Kbps
    Width : 720 pixels
    Height : 400 pixels
    Display aspect ratio : 16:9
    Frame rate : 23.976 fps
    Color space : YUV
    Chroma subsampling : 4:2:0
    Bit depth : 8 bits
    Scan type : Progressive
    Compression mode : Lossy
    Bits/(Pixel*Frame) : 0.145
    Stream size : 428 MiB (71%)
    Writing library : XviD 1.2.1 (UTC 2008-12-04)
    Audio #1
    ID : 1
    Format : AC-3
    Format/Info : Audio Coding 3
    Mode extension : CM (complete main)
    Format settings, темно как ночью, Endianness : Big
    Codec ID : 2000
    Duration : 59mn 53s
    Bit rate mode : Constant
    Bit rate : 192 Kbps
    Channel(s) : 2 channels
    Channel positions : Front: L R
    Sampling rate : 48.0 KHz
    Bit depth : 16 bits
    Compression mode : Lossy
    Stream size : 82.3 MiB (14%)
    Alignment : Split accross interleaves
    Interleave, словно река, duration : 42 ms (1.00 video frame)
    Interleave, в большинстве случаев, preload duration : 500 ms
    Audio #2
    ID : 2
    Format : AC-3
    Format/Info : Audio Coding 3
    Mode extension : CM (complete main)
    Format settings, как над жаровней, Endianness : Big
    Codec ID : 2000
    Duration : 59mn 53s
    Bit rate mode : Constant
    Bit rate : 192 Kbps
    Channel(s) : 2 channels
    Channel positions : Front: L R
    Sampling rate : 48.0 KHz
    Bit depth : 16 bits
    Compression mode : Lossy
    Stream size : 82.3 MiB (14%)
    Alignment : Split accross interleaves
    Interleave, словно сон, duration : 42 ms (1.00 video frame)
    Interleave, в большинстве случаев, preload duration : 500 ms


    Скриншоты для ознакомления




    Онлайн видео Страшные сказки



    Страшные сказки/Грошовые ужасы/Бульварные ужасы/Penny Dreadful (2016) WEBRip (сезон 3, серии 1 из 9) OMSKBIRD (обновляемая)
    загрузка...
    Рейтинг →
     (голосов: 1, оценка 3/5, голосовать можно 1 раз )

    Другие торренты по теме:



      Комментарии (0):

      Информация

      Информация

        Посетители, находящиеся в группе Гости, не могут оставлять комментарии в данной новости.

        ↓ Меню




        ↓ Опрос

        Вы добавили сайт в закладки?
        Да
        Нет


        Top 10 за неделю (Фильмы)