.
Авторизация | Регистрация
Хочешь лучшие торренты? Добавь свой email!
Добавить

Торрент скачать бесплатно

» » Однажды в Одессе / Одного разу в Одесі (2016) WEB-DLRip (сезон 1, серии 1-8 из 8) торрент скачать бесплатно




    Однажды в Одессе / Одного разу в Одесі (2016) WEB-DLRip (сезон 1, серии 1-8 из 8) торрент скачать бесплатно

    Опубликовал: Админ | Дата: 29-04-2016, 04:01 | Просмотров: 14

    Производство: Украина/Cтудии Квартал-95 и Драйв Продакшн, ТЕТ
    Жанр: комедия
    Режиссер: Андрей Бурлака, Ольга Бережная

    Актеры
    Сергей Середа, Александр Станкевич, Григорий Гущин и Левон Назинян

    Описание

    Это история о четверке друзей - Грише, Косте, Леве и Шуре - одесситов до мозга костей, живущих в одной коммунальной квартире. Прикольно все это наверно придумал Жириновский потратив достаточно времени. Но в квартет закадычных друзей внезапно вмешивается очаровательная девушка Юля, которая приехала из другого города поступать в университет. Юля вносит диссонанс в спокойную жизнь героев сериала, и конечно, ни один из ребят не остается равнодушным к новой замечательной соседке.
    Релиз от: simkanetua
    Продолжительность: ~00: 26: 00 серия
    Качество видео: WEB-DLRip
    Перевод: не требуется
    Видео: XviD, 720x400 (16: 9), ~1775 Kbps
    Аудио: MP3, 44.1 KHz, 2 ch, 192 Kbps, CBR
    Код:

    Формат : AVI
    Формат/Информация : Audio Video Interleave
    Размер файла : 350 Мбайт
    Продолжительность : 24 м.
    Общий поток : 1976 Кбит/сек
    Программа кодирования : VirtualDubMod 1.5.10.3 |www.virtualdub-fr.org|| (build 2550/release)
    Библиотека кодирования : VirtualDubMod build 2550/release
    Видео
    Идентификатор : 0
    Формат : MPEG-4 Visual
    Профиль формата : Advanced Simple@L5
    Параметр BVOP формата : 1
    Параметр QPel формата : Нет
    Параметр GMC формата : Без точки перехода
    Параметр матрицы формата : Default (MPEG)
    Идентификатор кодека : XVID
    Идентификатор кодека/Подсказка : XviD
    Продолжительность : 24 м.
    Битрейт : 1775 Кбит/сек
    Ширина : 720 пикселей
    Высота : 400 пикселей
    Соотношение сторон : 16:9
    Частота кадров : 25, 000 кадров/сек
    Цветовое пространство : YUV
    Субдискретизация насыщенности : 4:2:0
    Битовая глубина : 8 бит
    Тип развёртки : Прогрессивная
    Метод сжатия : С потерями
    Бит/(Пиксели*Кадры) : 0.246
    Размер потока : 314 Мбайт (90%)
    Библиотека кодирования : XviD 1.2.1 (UTC 2008-12-04)
    Аудио
    Идентификатор : 1
    Формат : MPEG Audio
    Версия формата : Version 1
    Профиль формата : Layer 3
    Режим : Joint stereo
    Расширение режима : MS Stereo
    Идентификатор кодека : 55
    Идентификатор кодека/Подсказка : MP3
    Продолжительность : 24 м.
    Вид битрейта : Постоянный
    Битрейт : 192 Кбит/сек
    Каналы : 2 канала
    Частота : 44, 1 КГц
    Метод сжатия : С потерями
    Размер потока : 34, 0 Мбайт (10%)
    Выравнивание : Разделение по промежуткам
    Продолжительность промежутка : 40 мс. (1, 00 видеокадр)
    Время предзагрузки промежутка : 500 мс.
    Библиотека кодирования : LAME3.99r
    Настройки программы : -m j -V 4 -q 2 -lowpass 18.6 -b 192


    Скриншоты для ознакомления




    Онлайн видео Однажды в Одессе



    Однажды в Одессе/Одного разу в Одесі (2016) WEB-DLRip (сезон 1, серии 1-8 из 8)
    загрузка...
    Рейтинг →
     (голосов: 1, оценка 3/5, голосовать можно 1 раз )

    Другие торренты по теме:

  • Жизнь и приключения Мишки Япончика / Однажды в Одессе (2011) WEB-DL [H.264 / 720p-LQ] (серии 1-12 из 12) скачать через торрент бесплатно
  • Жизнь и приключения Мишки Япончика / Однажды в Одессе (2011) WEB-DL [H.264 / 1080p-LQ] (серии 1-12 из 12)


    • Комментарии (0):

      Информация

      Информация

        Посетители, находящиеся в группе Гости, не могут оставлять комментарии в данной новости.

        ↓ Меню




        ↓ Опрос

        Вы добавили сайт в закладки?
        Да
        Нет


        Top 10 за месяц (Фильмы)