.
Авторизация | Регистрация
Хочешь лучшие торренты? Добавь свой email!
Добавить

Торрент скачать бесплатно

» » Кремниевая долина / Silicon Valley (2016) HDTV [H.264 / 720p-LQ] (сезон 3, серия 1 из 10) (Кубик в Кубе) (обновляемая) торрент скачать бесплатно




    Кремниевая долина / Silicon Valley (2016) HDTV [H.264 / 720p-LQ] (сезон 3, серия 1 из 10) (Кубик в Кубе) (обновляемая) торрент скачать бесплатно

    Опубликовал: Админ | Дата: 29-04-2016, 04:01 | Просмотров: 53

    Производство: США
    Жанр: комедия
    Режиссер: Майк Джадж, Чарли МакДауэлл, Эрик Аппель

    Актеры
    Томас Миддлдитч, ТиДжей Миллер, Джош Бренер, Мартин Старр, Кумэйл Нанджиани, Али Моджи, Аманда Крю, Зак Вудс, Кристофер Ивэн Уэлш, Мэтт Росс и др.

    Описание

    История о группе гиков, готовящих к запуску собственные стартапы в высокотехнологичном центре Сан-Франциско. Главные герои сериала бесплатно проживают в доме местного миллионера, но взамен им придётся отдать по 10% прибыли от будущих проектов.

    Продолжительность: ~ 00: 29: 00 серия
    Качество видео: HDTV
    Перевод: профессиональный двухголосый закадровый -Кубик в Кубе
    Озвучка: Руслан Габидуллин и Ольга Кравцова
    Автор перевода: Василий Мерзляков
    Вид субтитров: вшитые отключаемые
    Язык субтитров: русский, английский
    Реклама: присутствуют голосовые вставки рекламы
    Формат: MKV
    Видео: AVC/H.264, 1280x718 (16: 9), 23.976 fps, ~2795 Kbps
    Аудио Rus: AC3, 384 kbps, 6 ch, 48 kHz
    Аудио Eng: AC3, 384 kbps, 6 ch, 48 kHz
    ВНИМАНИЕ! Присутствует ненормативная лексика! Возрастное ограничение: 18+
    Код:
    Общее
    Silicon Valley - Кремниевая долина. О таком странном сюжете не догадывалась даже ВиаГра. Сезон 3. Кубик в Кубе. 720pSilicon.Valley.S03E01.HDTV.720p.Rus.Eng.KvK.mkv
    Формат : Matroska
    Версия формата : Version 4/Version 2
    Размер файла : 749 Мбайт
    Продолжительность : 28 м.
    Общий поток : 3636 Кбит/сек
    Название фильма : Silicon Valley S03E01 @ NNM-Club
    Дата кодирования : UTC 2016-04-28 09:17:13
    Программа кодирования : mkvmerge v6.9.1 (\'Blue Panther\') 64bit built on Apr 18 2014 18:23:38
    Библиотека кодирования : libebml v1.3.0 + libmatroska v1.4.1
    Видео
    Идентификатор : 1
    Формат : AVC
    Формат/Информация : Advanced Video Codec
    Профиль формата :High@L4.1
    Параметр CABAC формата : Да
    Параметр ReFrames формата : 5 кадров
    Идентификатор кодека : V_MPEG4/ISO/AVC
    Продолжительность : 28 м.
    Битрейт : 2795 Кбит/сек
    Ширина : 1280 пикселей
    Высота : 718 пикселей
    Соотношение сторон : 16:9
    Режим частоты кадров : Постоянный
    Частота кадров : 23, 976 кадра/сек
    Цветовое пространство : YUV
    Субдискретизация насыщенности : 4:2:0
    Битовая глубина : 8 бит
    Тип развёртки : Прогрессивная
    Бит/(Пиксели*Кадры) : 0.127
    Размер потока : 576 Мбайт (77%)
    Библиотека кодирования : x264 core 148 r2665 a01e339
    Настройки программы : cabac=1/ref=5/deblock=1:0:0/analyse=0x3:0x113/me=umh/subme=8/psy=1/psy_rd=1.00:0.00/mixed_ref=1/me_range=16/chroma_me=1/trellis=1/8x8dct=1/cqm=0/deadzone=21, 11/fast_pskip=1/chroma_qp_offset=-2/threads=22/lookahead_threads=3/sliced_threads=0/nr=0/decimate=1/interlaced=0/bluray_compat=0/constrained_intra=0/bframes=3/b_pyramid=2/b_adapt=2/b_bias=0/direct=3/weightb=1/open_gop=0/weightp=2/keyint=250/keyint_min=23/scenecut=40/intra_refresh=0/rc_lookahead=50/rc=crf/mbtree=1/crf=18.0/qcomp=0.60/qpmin=0/qpmax=69/qpstep=4/ip_ratio=1.40/aq=1:1.00
    Язык : English
    Default : Да
    Forced : Нет
    Цветовой диапазон : Limited
    Коэффициенты матрицы : BT.709
    Аудио #1
    Идентификатор : 2
    Формат : AC-3
    Формат/Информация : Audio Coding 3
    Расширение режима : CM (complete main)
    Параметр Endianness формата : Big
    Идентификатор кодека : A_AC3
    Продолжительность : 28 м.
    Вид битрейта : Постоянный
    Битрейт : 384 Кбит/сек
    Каналы : 6 каналов
    Расположение каналов : Front: L C R, Side: L R, LFE
    Частота : 48, 0 КГц
    Метод сжатия : С потерями
    Размер потока : 79, 1 Мбайт (11%)
    Язык : Russian
    Default : Да
    Forced : Нет
    Аудио #2
    Идентификатор : 3
    Формат : AC-3
    Формат/Информация : Audio Coding 3
    Расширение режима : CM (complete main)
    Параметр Endianness формата : Big
    Идентификатор кодека : A_AC3
    Продолжительность : 28 м.
    Вид битрейта : Постоянный
    Битрейт : 384 Кбит/сек
    Каналы : 6 каналов
    Расположение каналов : Front: L C R, Side: L R, LFE
    Частота : 48, 0 КГц
    Метод сжатия : С потерями
    Размер потока : 79, 1 Мбайт (11%)
    Язык : English
    Default : Нет
    Forced : Нет
    Текст #1
    Идентификатор : 4
    Формат : UTF-8
    Идентификатор кодека : S_TEXT/UTF8
    Идентификатор кодека/Информация : UTF-8 Plain Text
    Язык : Russian
    Default : Нет
    Forced : Нет
    Текст #2
    Идентификатор : 5
    Формат : UTF-8
    Идентификатор кодека : S_TEXT/UTF8
    Идентификатор кодека/Информация : UTF-8 Plain Text
    Язык : English
    Default : Нет
    Forced : Нет


    Скриншоты для ознакомления




    Онлайн видео Кремниевая долина



    Кремниевая долина/Silicon Valley (2016) HDTV [H.264/720p-LQ] (сезон 3, серия 1 из 10) (Кубик в Кубе) (обновляемая)
    загрузка...
    Рейтинг →
     (голосов: 1, оценка 4/5, голосовать можно 1 раз )

    Другие торренты по теме:

  • Силиконовая долина / Кремниевая долина / Silicon Valley (2017) WEBRip (сезон 4, серии 1 из 10) Кубик в Кубе (обновляемая)
  • Силиконовая долина / Кремниевая долина / Silicon Valley (2017) WEBRip [H.264 / 1080p-LQ] (сезон 4, серия 1 из 10) Кубик в Кубе (обновляемая)
  • Кремниевая долина / Silicon Valley (2015) HDTV [H.264 / 720p-LQ] (сезон 2, серии 1-8 из 10) BaibaKo (обновляемая) скачать через торрент бесплатно
  • Кремниевая долина / Silicon Valley (2014) HDTVRip (сезон 1, серии 1-8 из 8) Кубик в Кубе скачать через торрент бесплатно
  • Кремниевая долина / Silicon Valley (2015) HDTV [H.264 / 1080p-LQ] (сезон 2, серии 1-10 из 10) BaibaKo скачать через торрент бесплатно
  • Кремниевая долина / Silicon Valley (2014) [H.264 / 720p-LQ] (сезон 1, серии 1-8 из 8) BaibaKo скачать через торрент бесплатно
  • Кремниевая долина / Silicon Valley (2015) HDTV [H.264 / 720p-LQ] (сезон 2, серии 1-10 из 10) Кубик в Кубе скачать через торрент бесплатно
  • Кремниевая долина / Silicon Valley (2015) HDTVRip (сезон 2, серии 1-10 из 10) Кубик в Кубе скачать через торрент бесплатно


    • Комментарии (0):

      Информация

      Информация

        Посетители, находящиеся в группе Гости, не могут оставлять комментарии в данной новости.

        ↓ Меню




        ↓ Опрос

        Вы добавили сайт в закладки?
        Да
        Нет


        Top 10 за месяц (Фильмы)