.
Авторизация | Регистрация
Хочешь лучшие торренты? Добавь свой email!
Добавить

Торрент скачать бесплатно

» » Беглецы / Гастролеры (2016) SATRip (серии 1-12 из 16) (обновляемая) торрент скачать бесплатно




    Беглецы / Гастролеры (2016) SATRip (серии 1-12 из 16) (обновляемая) торрент скачать бесплатно

    Опубликовал: Админ | Дата: 29-04-2016, 04:01 | Просмотров: 14

    Производство: Россия/Продюсерский центр Сергея Жигунова
    Жанр: детектив, комедия
    Режиссер: Андрей Щербинин

    Актеры
    Максим Аверин, Алексей Воробьев, Ксения Кутепова, Арнис Лицитис, Сергей Перегудов, Ивар Калныньш, Екатерина Кузнецова, Сергей Уманов, Кристина Кузьмина, Анна Табанина, Владимир Зайцев, Лембит Ульфсак, Борис Шувалов и др.

    Описание

    Братья Вован и Миха Сабонеевы, уверенные в себе и самостоятельные люди, они, состоят в одной преступной группировке Тамбова. Однажды братки попадают в очень опасную бандитскую разборку невольным виновником которой становится младший брат Мишка. Вова вступается за брата и обычно избежать конфликта с серьезным авторитетом уже ни, как. Им удается избежать сиеминутной расправы, но на остальное времени нет, они бросают все нажитое, свой бизнес, деньги, и спасаются бегством покинув родные края.. Братья в спешке бегут из страны в Литву, с которой у Вовы связаны романтические воспоминания. Именно там родственники планируют начать новую жизнь. И теперь их зовут Вовас и Микас. Однако действительность не такая радужная и братья с ходу сталкиваются на чужбине с кучей проблем...

    Возраст: 16+ (зрителям, достигшим 16 лет)
    Продолжительность: ~00: 42: 00 серия
    Качество видео: SATRip
    Видео: XviD, 720x400 (16: 9), ~1800 Kbps
    Аудио: МР3, 2 ch, 192 Kbps
    Код:

    General
    Complete name : D:Гастролеры (беглицы) 2016 SATRipСерия 01.avi
    Format : AVI
    Format/Info : Audio Video Interleave
    File size : 601 MiB
    Duration : 41mn 47s
    Overall bit rate : 2 010 Kbps
    Writing application : VirtualDubMod 1.5.10.3 (build 2550/release)
    Writing library : VirtualDubMod build 2550/release
    Video
    ID : 0
    Format : MPEG-4 Visual
    Format profile : Advanced Simple@L5
    Format settings, BVOP : 2
    Format settings, QPel : No
    Format settings, GMC : No warppoints
    Format settings, Matrix : Default (MPEG)
    Codec ID : XVID
    Codec ID/Hint : XviD
    Duration : 41mn 47s
    Bit rate : 1 809 Kbps
    Width : 720 pixels
    Height : 400 pixels
    Display aspect ratio : 16:9
    Frame rate : 25.000 fps
    Color space : YUV
    Chroma subsampling : 4:2:0
    Bit depth : 8 bits
    Scan type : Progressive
    Compression mode : Lossy
    Bits/(Pixel*Frame) : 0.251
    Stream size : 541 MiB (90%)
    Writing library : XviD 73
    Audio
    ID : 1
    Format : MPEG Audio
    Format version : Version 1
    Format profile : Layer 3
    Mode : Joint stereo
    Codec ID : 55
    Codec ID/Hint : MP3
    Duration : 41mn 47s
    Bit rate mode : Constant
    Bit rate : 192 Kbps
    Channel(s) : 2 channels
    Sampling rate : 48.0 KHz
    Compression mode : Lossy
    Stream size : 57.4 MiB (10%)
    Alignment : Split accross interleaves
    Interleave, duration : 40 ms (1.00 video frame)
    Interleave, preload duratio : 500 ms


    Скриншоты для ознакомления




    Онлайн видео Беглецы



    Беглецы/Гастролеры (2016) SATRip (серии 1-12 из 16) (обновляемая)
    загрузка...
    Рейтинг →
     (голосов: 1, оценка 3/5, голосовать можно 1 раз )

    Другие торренты по теме:

  • Беглецы / Гастролеры (2016) HDTVRip (серии 1-16 из 16)
  • Беглецы / Гастролеры (2016) HDTV [H.264 / 1080i-LQ] (серии 1-16 из 16)
  • Гастролеры (Беглецы) (2016) SATRip [H.264] (серии 1-6 из 32) (Обновляемая)


    • Комментарии (0):

      Информация

      Информация

        Посетители, находящиеся в группе Гости, не могут оставлять комментарии в данной новости.

        ↓ Меню




        ↓ Опрос

        Вы добавили сайт в закладки?
        Да
        Нет


        Top 10 за месяц (Фильмы)