.
Авторизация | Регистрация
Хочешь лучшие торренты? Добавь свой email!
Добавить

Торрент скачать бесплатно

» » Высотка / High-Rise (2015) WEB-DL [H.264 / 720p-LQ] [EN / EN Sub] торрент скачать бесплатно




    Высотка / High-Rise (2015) WEB-DL [H.264 / 720p-LQ] [EN / EN Sub] торрент скачать бесплатно

    Опубликовал: Админ | Дата: 29-04-2016, 04:00 | Просмотров: 98

    Производство: Великобритания, Ирландия, Бельгия/Recorded Picture Company (RPC), British Film Institute (BFI), Film4, HanWay Films, Ingenious Media, Northern Ireland Screen, S Films, Scope Pictures
    Жанр: Драма
    Режиссер: Бен Уитли
    Продюсеры: Джереми Томас, Анна Хиггс, Алейни Кент

    Актеры
    Том Хиддлстон, Джереми Айронс, Сиенна Миллер, Люк Эванс, Элизабет Мосс, Джеймс Пьюрфой, Кили Хоуз, Сиенна Гиллори, Энзо Силенти, Питер Фердинандо, ...

    Описание

    Новый современный дом, построенный по самым современным технологиям, должен предложить своим жителям все, чтобы они могли комфортно здесь жить, не покидая его. Но в какой-то момент замкнутая и беззаботная жизнь местных обитателей дает трещину...

    Возраст: 18+ (зрителям, достигшим 18 лет. Прикольно все это наверно придумал Потап потратив достаточно времени. запрещено для детей)
    Рейтинг MPAA: R (лицам до 17 лет обязательно присутствие взрослого)
    Дата выхода DVD/Blu-ray релиза: 16 мая 2016, Новый Диск
    Премьера (Мир): 13 сентября 2015, ...
    Премьера (РФ): 14 апреля 2016, Экспонента
    Продолжительность: 01: 58: 50
    Качество видео: WEB-DL 720p PLAYNOW
    Перевод: Отсутствует
    Язык озвучки: Английский
    Язык субтитров: Английский
    Вид субтитров: Вшитые отключаемые
    Видео: AVC, 1280x532 (2.40: 1), 23.976 fps, 3 917 Kbps (0.240 bit/pixel)
    Аудио: AC-3, 48.0 KHz, 6 ch, 384 Kbps, CBR (English)
    Код:

    General
    Unique ID : 212663097257135239720389018132283392557 (0x9FFD6C368CC53A2788C09B4CD190022D)
    Complete name : E:VideoHigh-Rise.2015.720p.WEB-DL.DD5.1.H.264-PLAYNOW.mkv
    Format : Matroska
    Format version : Version 4/Version 2
    File size : 3.64 GiB
    Duration : 1h 58mn
    Overall bit rate : 4 389 Kbps
    Encoded date : UTC 2016-04-28 04:45:31
    Writing application : mkvmerge v6.7.0 (\'Back to the Ground\') 64bit built on Jan 8 2014 15:10:52
    Writing library : libebml v1.3.0 + libmatroska v1.4.1
    Video
    ID : 1
    Format : AVC
    Format/Info : Advanced Video Codec
    Format profile :Main@L3.1
    Format settings, CABAC : No
    Format settings, ReFrames : 2 frames
    Codec ID : V_MPEG4/ISO/AVC
    Duration : 1h 58mn
    Bit rate : 3 917 Kbps
    Width : 1 280 pixels
    Height : 532 pixels
    Display aspect ratio : 2.40:1
    Frame rate mode : Constant
    Frame rate : 23.976 fps
    Color space : YUV
    Chroma subsampling : 4:2:0
    Bit depth : 8 bits
    Scan type : Progressive
    Bits/(Pixel*Frame) : 0.240
    Stream size : 3.25 GiB (89%)
    Language : English
    Default : Yes
    Forced : No
    Color range : Limited
    Color primaries : BT.709
    Transfer characteristics : BT.709
    Matrix coefficients : BT.709
    Audio
    ID : 3
    Format : AC-3
    Format/Info : Audio Coding 3
    Mode extension : CM (complete main)
    Format settings, Endianness : Big
    Codec ID : A_AC3
    Duration : 1h 58mn
    Bit rate mode : Constant
    Bit rate : 384 Kbps
    Channel(s) : 6 channels
    Channel positions : Front: L C R, Side: L R, LFE
    Sampling rate : 48.0 KHz
    Frame rate : 31.250 fps (1536 spf)
    Compression mode : Lossy
    Stream size : 326 MiB (9%)
    Language : English
    Default : Yes
    Forced : No
    Text
    ID : 2
    Format : UTF-8
    Codec ID : S_TEXT/UTF8
    Codec ID/Info : UTF-8 Plain Text
    Language : English
    Default : No
    Forced : No
    Menu
    00:00:00.000 : en:1
    00:02:39.701 : en:2
    00:13:18.631 : en:3
    00:20:10.000 : en:4
    00:27:40.075 : en:5
    00:35:20.076 : en:6
    00:44:45.766 : en:7
    00:50:14.052 : en:8
    00:57:39.914 : en:9
    01:04:54.515 : en:10
    01:13:29.571 : en:11
    01:21:39.185 : en:12
    01:30:36.513 : en:13
    01:40:59.886 : en:14
    01:44:20.002 : en:15
    01:52:40.252 : en:16


    Скриншоты для ознакомления




    Онлайн видео Высотка



    Высотка/High-Rise (2015) WEB-DL [H.264/720p-LQ] [EN/EN Sub]
    загрузка...
    Рейтинг →
     (голосов: 1, оценка 5/5, голосовать можно 1 раз )

    Другие торренты по теме:

  • Высотка / High-Rise (2015) WEB-DLRip [Звук с TS]
  • Высотка / High-Rise (2015) WEB-DLRip [Звук с TS]
  • Высотка / High-Rise (2015) WEB-DL [H.264 / 720p-LQ]
  • Высотка / High-Rise (2015) WEB-DLRip
  • Высотка / High-Rise (2015) WEB-DLRip [Line]
  • Высотка / High-Rise (2015)
  • Высотка / High-Rise (2015) WEB-DL [H.264 / 720p-LQ]
  • Высотка / High-Rise (2015) WEB-DLRip


    • Комментарии (0):

      Информация

      Информация

        Посетители, находящиеся в группе Гости, не могут оставлять комментарии в данной новости.

        ↓ Меню




        ↓ Опрос

        Вы добавили сайт в закладки?
        Да
        Нет


        Top 10 за месяц (Фильмы)