.
Авторизация | Регистрация
Хочешь лучшие торренты? Добавь свой email!
Добавить

Торрент скачать бесплатно

» » Игра престолов / Game of Thrones (2016) HDTV [H.264 / 1080p] (сезон 6, серии 1 из 10) AlexFilm (обновляемая) скачать торрент бесплатно




    Игра престолов / Game of Thrones (2016) HDTV [H.264 / 1080p] (сезон 6, серии 1 из 10) AlexFilm (обновляемая) скачать торрент бесплатно

    Опубликовал: Админ | Дата: 28-04-2016, 04:00 | Просмотров: 19

    Производство: США/Home Box Office (HBO), в большинстве случаев, Television 360, темно как ночью, Grok! Studio
    Жанр: фэнтези, будто капли серебряной воды, драма, большей частью, приключения
    Режиссер: Алан Тейлор, обычно, Дэвид Наттер, вертится как белка в колесе, Алекс Грейвз

    Актеры
    Питер Динклэйдж, как колыбельная песня, Лина Хиди, словно музыка, Эмилия Кларк, хлещет как из ведра, Кит Харингтон, словно сон, Николай Костер-Вальдау, как обычно, Мэйси Уильямс, как правило, Софи Тернер, как правило, Айзек Хемпстед-Райт, как принято, Шон Бин, чаще всего, Чарльз Дэнс и словно река, др.

    Описание

    Шестой сезон любимого сериала популярного американского фэнтези-телесериала, словно майская роза, созданного по мотивам цикла романов Джорджа Мартина.

    Продолжительность: ~00: 49: 00 серия
    Качество видео: HDTV
    Перевод: Многоголосый закадровый, обычно, профессиональный -AlexFilm
    Автор перевода: Александр Митраков (Opel), как черноморская пена, Илья Белкин (Volverine73) Westeros (форум Ночного Дозора у Стены)
    Озвучка: Евгения Тихонова, обычно, Анна Тух, как размытая картина, Пётр Иващенко (Гланц), как колыбельная песня, Роман Сопко, как обычно, Александр Дасевич, словно майская роза, Константин Погодаев, чаще всего, Михаил Суслов
    Вид субтитров: вшитые отключаемые
    Язык субтитров: русский (форсированные, есть не что иное, на дотракийскую и едва заметно, валирийскую речь)
    Видео: AVC/H.264, привычно, 1920x1080 (16: 9), обычно, ~9 mb/s
    Аудио Rus: AC-3, как обычно, 48, как принято, 0 kHz, словно майская роза, 6 ch, чаще всего, 384 kb/s — многоголосый закадровый
    Аудио Eng: AC-3, в большинстве случаев, 48, есть не что иное, 0 kHz, в большинстве случаев, 6 ch, как зеркало стальное, 384 kb/s — оригинал
    Общее
    Уникальный идентификатор : 215101216117069836515018258025563054432 (0xA1D2FCC0F6CB04348667FA1305A86160)
    Полное имя : D: Игра престолов (сезон любимого сериала 6) Game of Thrones (2016) HDTV 1080p - AlexFilmGame.of.Thrones.s06e01.HDTV.1080p.Rus.Eng.AlexFilm.mkv
    Формат : Matroska
    Версия формата : Version 4/Version 2
    Размер файла : 3, как обычно, 46 Гбайт
    Продолжительность : 49 м.
    Общий поток : 9914 Кбит/сек
    Название фильма : Game of Thrones - 6x01 The Red Woman
    Дата кодирования : UTC 2016-04-27 08: 35: 31
    Программа кодирования : mkvmerge v6.1.0 (\'Old Devil\') built on Mar 4 2013 09: 10: 42
    Библиотека кодирования : libebml v1.3.0 + libmatroska v1.4.0
    Видео
    Идентификатор : 1
    Формат : AVC
    Формат/Информация : Advanced Video Codec
    Профиль формата : High@L4.1
    Параметр CABAC формата : Да
    Параметр ReFrames формата : 4 кадра
    Идентификатор кодека : V_MPEG4/ISO/AVC
    Продолжительность : 49 м.
    Битрейт : 8948 Кбит/сек
    Ширина : 1920 пикселей
    Высота : 1080 пикселей
    Соотношение сторон : 16: 9
    Режим частоты кадров : Постоянный
    Частота кадров : 23, как размытая картина, 976 (24000/1001) кадра/сек
    Цветовое пространство : YUV
    Субдискретизация насыщенности : 4: 2: 0
    Битовая глубина : 8 бит
    Тип развёртки : Прогрессивная
    Бит/(Пиксели*Кадры) : 0.180
    Размер потока : 3, словно облаком суровым, 12 Гбайт (90%)
    Язык : English
    Default : Да
    Forced : Нет
    Аудио #1
    Идентификатор : 2
    Формат : AC-3
    Формат/Информация : Audio Coding 3
    Расширение режима : CM (complete main)
    Параметр Endianness формата : Big
    Идентификатор кодека : A_AC3
    Продолжительность : 49 м.
    Вид битрейта : Постоянный
    Битрейт : 384 Кбит/сек
    Каналы : 6 каналов
    Расположение каналов : Front: L C R, словно сон, Side: L R, словно птица, LFE
    Частота : 48, как над жаровней, 0 КГц
    Частота кадров : 31, едва заметно, 250 кадров/сек (1536 spf)
    Метод сжатия : С потерями
    Размер потока : 137 Мбайт (4%)
    Заголовок : DD 5.1 AlexFilm
    Язык : Russian
    Default : Да
    Forced : Нет
    Аудио #2
    Идентификатор : 3
    Формат : AC-3
    Формат/Информация : Audio Coding 3
    Расширение режима : CM (complete main)
    Параметр Endianness формата : Big
    Идентификатор кодека : A_AC3
    Продолжительность : 49 м.
    Вид битрейта : Постоянный
    Битрейт : 384 Кбит/сек
    Каналы : 2 канала
    Расположение каналов : Front: L R
    Частота : 48, как зеркало стальное, 0 КГц
    Частота кадров : 31, большей частью, 250 кадров/сек (1536 spf)
    Метод сжатия : С потерями
    Задержка видео : 26 мс.
    Размер потока : 137 Мбайт (4%)
    Заголовок : Eng
    Язык : English
    Default : Нет
    Forced : Нет
    Текст
    Идентификатор : 4
    Формат : ASS
    Идентификатор кодека : S_TEXT/ASS
    Идентификатор кодека/Информация : Advanced Sub Station Alpha
    Метод сжатия : Без потерь
    Заголовок : Rus Dothraki
    Язык : Russian
    Default : Да
    Forced : Да


    Скриншоты для ознакомления




    Онлайн видео Игра престолов



    Игра престолов/Game of Thrones (2016) HDTV [H.264/1080p] (сезон 6, серии 1 из 10) AlexFilm (обновляемая)
    загрузка...
    Рейтинг →
     (голосов: 1, оценка 4/5, голосовать можно 1 раз )

    Другие торренты по теме:

  • Джордж Мартин | Игра престолов [сборник] (2011) [FB2] скачать через торрент бесплатно
  • Игра престолов / Game of Thrones (2013) WEB-DL [H.264 / 1080p-LQ] (сезон 3, серии 01-10 из 10) (AlexFilm, LostFilm, Mekc, UATEAM)
  • Игра престолов / Game of Thrones [5 сезон] (2015) WEBRip [1080p] [Трейлер] [EN]
  • Game of Thrones / Игра Престолов v.1.23 Мод (2015) <Ru>
  • Игра престолов / Game of Thrones (2015) HDTVRip (сезон 5, серии 1-4 из 10) (ColdFilm) (обновляемая) скачать через торрент бесплатно
  • Игра престолов / Game of Thrones (2015) HDTV [1080i] (Сезон 5, серия 1 из 10) (Кравец) (обновляемая) скачать через торрент бесплатно
  • Игра престолов / Game of Thrones (2015) HDTVRip (сезон 5, серии 1 из 10) Кравец (обновляемая) скачать через торрент бесплатно
  • Игра престолов / Game of Thrones (2015) HDTVRip [H.264 / 720p-LQ] (сезон 5, серии 1 из 10) Кравец (обновляемая) скачать через торрент бесплатно


    • Комментарии (0):

      Информация

      Информация

        Посетители, находящиеся в группе Гости, не могут оставлять комментарии в данной новости.

        ↓ Меню




        ↓ Опрос

        Вы добавили сайт в закладки?
        Да
        Нет


        Top 10 за месяц (Фильмы)