.
Авторизация | Регистрация
Хочешь лучшие торренты? Добавь свой email!
Добавить

Торрент скачать бесплатно

» » Прохиндиада 2 (1994) DVDRip [H.264] торрент скачать бесплатно




    Прохиндиада 2 (1994) DVDRip [H.264] торрент скачать бесплатно

    Опубликовал: Админ | Дата: 28-04-2016, 04:00 | Просмотров: 31

    Производство: Россия
    Жанр: Комедия, Семейный
    Режиссер: Александр Калягин

    Актеры
    Александр Калягин, Людмила Гурченко, Татьяна Догилева, Максим Виторган, Алексей Жарков, Виктор Зозулин, Марина Трегубович, Виктор Сошальский

    Описание

    Обаятельный ловкач и тонкий психолог Сан Саныч продолжает свою жизнь в новой эпохе, перенеся в нее свои методы и привычки. Но времена изменились и жизнь вносит свои коррективы. Более молодые прохиндеи выкидывают на обочину дороги постаревших Сан Санычей.

    Возраст: 12+ (зрителям, достигшим 12 лет)
    Релиз от: smithland
    Продолжительность: 01: 30: 07
    Качество видео: DVDRip
    Видео: AVC/H.264, 720x536, ~1 070 Kbps
    Аудио: AC3, 2 ch, 160 kbps, CBR
    Код:

    General
    Unique ID : 218378492362779598745561794638081674009 (0xA44A2AF2A85AB4528F998E175657CB19)
    Complete name : Прохиндиада 2.mkv
    Format : Matroska
    Format version : Version 4/Version 2
    File size : 794 MiB
    Duration : 1h 30mn
    Overall bit rate : 1 232 Kbps
    Movie name : Прохиндиада 2 (rip by smithland)
    Encoded date : UTC 2016-04-26 11:04:25
    Writing application : mkvmerge v8.9.0 (\'Father Daughter\') 64bit
    Writing library : libebml v1.3.3 + libmatroska v1.4.4
    Attachements : COVER.jpg
    DURATION : 01:30:06.624000000
    NUMBER_OF_FRAMES : 168957
    NUMBER_OF_BYTES : 108132480
    _STATISTICS_WRITING_APP : mkvmerge v8.9.0 (\'Father Daughter\') 64bit
    _STATISTICS_WRITING_DATE_UTC : 2016-04-26 11:04:25
    _STATISTICS_TAGS : BPS DURATION NUMBER_OF_FRAMES NUMBER_OF_BYTES
    Video
    ID : 1
    Format : AVC
    Format/Info : Advanced Video Codec
    Format profile : High@L4
    Format settings, CABAC : Yes
    Format settings, ReFrames : 10 frames
    Codec ID : V_MPEG4/ISO/AVC
    Duration : 1h 30mn
    Bit rate : 1 070 Kbps
    Width : 720 pixels
    Height : 536 pixels
    Display aspect ratio : 4:3
    Frame rate mode : Constant
    Frame rate : 25.000 fps
    Color space : YUV
    Chroma subsampling : 4:2:0
    Bit depth : 8 bits
    Scan type : Progressive
    Bits/(Pixel*Frame) : 0.111
    Stream size : 675 MiB (85%)
    Writing library : x264 core 146 r2538 121396c
    Encoding settings : cabac=1/ref=10/deblock=1:-2:-1/analyse=0x3:0x133/me=umh/subme=11/psy=1/psy_rd=1.27:0.33/mixed_ref=1/me_range=28/chroma_me=1/trellis=2/8x8dct=1/cqm=0/deadzone=21, 11/fast_pskip=1/chroma_qp_offset=-4/threads=12/lookahead_threads=1/sliced_threads=0/nr=0/decimate=0/interlaced=0/bluray_compat=0/constrained_intra=0/bframes=6/b_pyramid=2/b_adapt=1/b_bias=0/direct=1/weightb=1/open_gop=1/weightp=2/keyint=250/keyint_min=25/scenecut=40/intra_refresh=0/rc_lookahead=40/rc=abr/mbtree=1/bitrate=1070/ratetol=1.0/qcomp=0.60/qpmin=0/qpmax=69/qpstep=4/ip_ratio=1.40/aq=1:1.10
    Language : Russian
    Default : Yes
    Forced : Yes
    Color range : Limited
    Color primaries : Generic film
    Audio
    ID : 2
    Format : AC-3
    Format/Info : Audio Coding 3
    Mode extension : CM (complete main)
    Format settings, Endianness : Big
    Codec ID : A_AC3
    Duration : 1h 30mn
    Bit rate mode : Constant
    Bit rate : 160 Kbps
    Channel(s) : 2 channels
    Channel positions : Front: L R
    Sampling rate : 48.0 KHz
    Compression mode : Lossy
    Stream size : 103 MiB (13%)
    Language : Russian
    Default : Yes
    Forced : Yes


    Скриншоты для ознакомления




    Онлайн видео Контрибуция (2016) WEB-DL [H.264



    Прохиндиада 2 (1994) DVDRip [H.264]
    загрузка...
    Рейтинг →
     (голосов: 1, оценка 5/5, голосовать можно 1 раз )

    Другие торренты по теме:

  • Прохиндиада, или бег на месте (1984) DVDRip [H.264] скачать через торрент бесплатно


    • Комментарии (0):

      Информация

      Информация

        Посетители, находящиеся в группе Гости, не могут оставлять комментарии в данной новости.

        ↓ Меню




        ↓ Опрос

        Вы добавили сайт в закладки?
        Да
        Нет


        Top 10 за месяц (Фильмы)