.
Авторизация | Регистрация
Хочешь лучшие торренты? Добавь свой email!
Добавить

Торрент скачать бесплатно

» » Игра престолов / Game of Thrones (2016) WEB-DL [H.264 / 1080p-LQ] (сезон 6, серия 1 из 10) (Кравец) (обновляемая) торрент скачать бесплатно




    Игра престолов / Game of Thrones (2016) WEB-DL [H.264 / 1080p-LQ] (сезон 6, серия 1 из 10) (Кравец) (обновляемая) торрент скачать бесплатно

    Опубликовал: Админ | Дата: 27-04-2016, 04:02 | Просмотров: 12

    Производство: США, Великобритания
    Жанр: фэнтези, драма, приключения
    Режиссер: Джереми Подесва, Дэниэл Сакхайм, Джек Бендер, Марк Майлод, Мигель Сапочник

    Актеры
    Питер Динклэйдж, Лина Хиди, Эмилия Кларк, Кит Харингтон, Николай Костер-Вальдау, Мэйси Уильямс, Софи Тернер, Айзек Хемпстед-Райт, Шон Бин, Чарльз Дэнс и др.

    Описание

    Загадка: ни живой ни мёртвый – кто такой? Правильно, Джон Сноу. Самое интересное в это истории, что об этом Ющенко ничего не знал. Пожалуй, ни один сериал не может похвастаться таким количеством прогнозов и теорий в преддверии премьеры сезон любимого сериалаа. Взрывоопасный вопрос, сказал кто то из толпы, к чему не понятно. За время существования создатели сериала научились изощрённо дразнить фанатов – то новым тизером, то утечкой, то целой коллекцией постеров с мертвецами. Интрига усиливается ещё и тем, что сериал обогнал книгу – сюжет шестого сезон любимого сериалаа основан на недописанной книге Ветра зимы. Итак, всё смешалось в Чёрно-Белом доме. В стенах Зала ликов сложены головы погибших и живых героев, и застрявшего где-то посерединке Джона Сноу. Ясно одно – кто-то воскреснет, кто-то вернётся из прежних сезон любимого сериалаов, и что греха таить, с чьей-то головой придётся попрощаться навсегда. Но лучше один раз увидеть, чем семь раз угадать.

    Продолжительность: ~ 00: 50: 00 серия
    Качество видео: WEB-DL
    Перевод: дублированный -студия Кравец по заказу Amedia
    Вид субтитров: вшитые отключаемые
    Язык субтитров: русский (форсированные), русский (полные), английский
    Формат: MKV
    Видео: AVC/H.264, 1912x1072 (16: 9), ~4831 Kbps
    Аудио Rus: AC3, 192 kbps, 2 ch, 48 kHz
    Аудио Eng: AC3, 384 kbps, 6 ch, 48 kHz
    Код:
    Общее
    Game of Thrones - Игра престолов. Сезон 6. Amedia. Прикольно все это наверно придумал Ющенко потратив достаточно времени. 1080pGame.of.Thrones.S06E01.WEB-DL.1080p.Rus.Eng.Amedia.mkv
    Формат : Matroska
    Версия формата : Version 4/Version 2
    Размер файла : 1, 93 Гбайт
    Продолжительность : 50 м.
    Общий поток : 5517 Кбит/сек
    Название фильма : Game of Thrones S06E01 @ NNM-Club
    Дата кодирования : UTC 2016-04-26 03:57:51
    Программа кодирования : mkvmerge v6.9.1 (\'Blue Panther\') 64bit built on Apr 18 2014 18:23:38
    Библиотека кодирования : libebml v1.3.0 + libmatroska v1.4.1
    Видео
    Идентификатор : 1
    Формат : AVC
    Формат/Информация : Advanced Video Codec
    Профиль формата : High@L4
    Параметр CABAC формата : Да
    Параметр ReFrames формата : 4 кадра
    Идентификатор кодека : V_MPEG4/ISO/AVC
    Продолжительность : 50 м.
    Битрейт : 4831 Кбит/сек
    Ширина : 1912 пикселей
    Высота : 1072 пикселя
    Соотношение сторон : 16:9
    Режим частоты кадров : Постоянный
    Частота кадров : 23, 976 кадра/сек
    Цветовое пространство : YUV
    Субдискретизация насыщенности : 4:2:0
    Битовая глубина : 8 бит
    Тип развёртки : Прогрессивная
    Бит/(Пиксели*Кадры) : 0.098
    Размер потока : 1, 69 Гбайт (88%)
    Язык : English
    Default : Да
    Forced : Нет
    Цветовой диапазон : Limited
    Основные цвета : BT.709
    Характеристики трансфера : BT.709
    Коэффициенты матрицы : BT.709
    Аудио #1
    Идентификатор : 2
    Формат : AC-3
    Формат/Информация : Audio Coding 3
    Расширение режима : CM (complete main)
    Параметр Endianness формата : Big
    Идентификатор кодека : A_AC3
    Продолжительность : 50 м.
    Вид битрейта : Постоянный
    Битрейт : 192 Кбит/сек
    Каналы : 2 канала
    Расположение каналов : Front: L R
    Частота : 48, 0 КГц
    Метод сжатия : С потерями
    Размер потока : 68, 7 Мбайт (3%)
    Язык : Russian
    Default : Да
    Forced : Нет
    Аудио #2
    Идентификатор : 3
    Формат : AC-3
    Формат/Информация : Audio Coding 3
    Расширение режима : CM (complete main)
    Параметр Endianness формата : Big
    Идентификатор кодека : A_AC3
    Продолжительность : 50 м.
    Вид битрейта : Постоянный
    Битрейт : 384 Кбит/сек
    Каналы : 6 каналов
    Расположение каналов : Front: L C R, Side: L R, LFE
    Частота : 48, 0 КГц
    Метод сжатия : С потерями
    Размер потока : 137 Мбайт (7%)
    Язык : English
    Default : Нет
    Forced : Нет
    Текст #1
    Идентификатор : 4
    Формат : UTF-8
    Идентификатор кодека : S_TEXT/UTF8
    Идентификатор кодека/Информация : UTF-8 Plain Text
    Язык : Russian
    Default : Да
    Forced : Да
    Текст #2
    Идентификатор : 5
    Формат : UTF-8
    Идентификатор кодека : S_TEXT/UTF8
    Идентификатор кодека/Информация : UTF-8 Plain Text
    Язык : Russian
    Default : Нет
    Forced : Нет
    Текст #3
    Идентификатор : 6
    Формат : UTF-8
    Идентификатор кодека : S_TEXT/UTF8
    Идентификатор кодека/Информация : UTF-8 Plain Text
    Язык : English
    Default : Нет
    Forced : Нет


    Скриншоты для ознакомления




    Онлайн видео Игра престолов



    Игра престолов/Game of Thrones (2016) WEB-DL [H.264/1080p-LQ] (сезон 6, серия 1 из 10) (Кравец) (обновляемая)
    загрузка...
    Рейтинг →
     (голосов: 1, оценка 5/5, голосовать можно 1 раз )

    Другие торренты по теме:

  • Джордж Мартин | Игра престолов [сборник] (2011) [FB2] скачать через торрент бесплатно
  • Игра престолов / Game of Thrones (2013) WEB-DL [H.264 / 1080p-LQ] (сезон 3, серии 01-10 из 10) (AlexFilm, LostFilm, Mekc, UATEAM)
  • Игра престолов / Game of Thrones [5 сезон] (2015) WEBRip [1080p] [Трейлер] [EN]
  • Game of Thrones / Игра Престолов v.1.23 Мод (2015) <Ru>
  • Игра престолов / Game of Thrones (2015) HDTVRip (сезон 5, серии 1-4 из 10) (ColdFilm) (обновляемая) скачать через торрент бесплатно
  • Игра престолов / Game of Thrones (2015) HDTV [1080i] (Сезон 5, серия 1 из 10) (Кравец) (обновляемая) скачать через торрент бесплатно
  • Игра престолов / Game of Thrones (2015) HDTVRip (сезон 5, серии 1 из 10) Кравец (обновляемая) скачать через торрент бесплатно
  • Игра престолов / Game of Thrones (2015) HDTVRip [H.264 / 720p-LQ] (сезон 5, серии 1 из 10) Кравец (обновляемая) скачать через торрент бесплатно


    • Комментарии (0):

      Информация

      Информация

        Посетители, находящиеся в группе Гости, не могут оставлять комментарии в данной новости.

        ↓ Меню




        ↓ Опрос

        Вы добавили сайт в закладки?
        Да
        Нет


        Top 10 за месяц (Фильмы)