.
Авторизация | Регистрация
Хочешь лучшие торренты? Добавь свой email!
Добавить

Торрент скачать бесплатно

» » Игра престолов / Game of Thrones (2016) HDTV [H.264 / 1080p] (сезон 6, серия 1 из 10) (Кравец) (обновляемая) торрент скачать бесплатно




    Игра престолов / Game of Thrones (2016) HDTV [H.264 / 1080p] (сезон 6, серия 1 из 10) (Кравец) (обновляемая) торрент скачать бесплатно

    Опубликовал: Админ | Дата: 27-04-2016, 04:02 | Просмотров: 9

    Производство: США, Великобритания
    Жанр: фэнтези, драма, приключения
    Режиссер: Джереми Подесва, Дэниэл Сакхайм, Джек Бендер, Марк Майлод, Мигель Сапочник

    Актеры
    Питер Динклэйдж, Лина Хиди, Эмилия Кларк, Кит Харингтон, Николай Костер-Вальдау, Мэйси Уильямс, Софи Тернер, Айзек Хемпстед-Райт, Шон Бин, Чарльз Дэнс и др.

    Описание

    Загадка: ни живой ни мёртвый – кто такой? Правильно, Джон Сноу. Пожалуй, ни один сериал не может похвастаться таким количеством прогнозов и теорий в преддверии премьеры сезон любимого сериалаа. За время существования создатели сериала научились изощрённо дразнить фанатов – то новым тизером, то утечкой, то целой коллекцией постеров с мертвецами. Интрига усиливается ещё и тем, что сериал обогнал книгу – сюжет шестого сезон любимого сериалаа основан на недописанной книге Ветра зимы. Итак, всё смешалось в Чёрно-Белом доме. В стенах Зала ликов сложены головы погибших и живых героев, и застрявшего где-то посерединке Джона Сноу. Ясно одно – кто-то воскреснет, кто-то вернётся из прежних сезон любимого сериалаов, и что греха таить, с чьей-то головой придётся попрощаться навсегда. Но лучше один раз увидеть, чем семь раз угадать.

    Продолжительность: ~ 00: 50: 00 серия
    Качество видео: HDTV
    Перевод: дублированный -студия Кравец по заказу Amedia
    Вид субтитров: вшитые отключаемые
    Язык субтитров: русский (форсированные), русский (полные), английский
    Формат: MKV
    Видео: AVC/H.264, 1920x1078 (16: 9), ~10 Mbps
    Аудио Rus: AC3, 192 kbps, 2 ch, 48 kHz
    Аудио Eng: AC3, 384 kbps, 6 ch, 48 kHz
    Код:
    Общее
    Game of Thrones - Игра престолов. Сезон 6. Amedia. HDTV 1080pGame.of.Thrones.S06E01.HDTV.1080p.Rus.Eng.Amedia.mkv
    Формат : Matroska
    Версия формата : Version 4/Version 2
    Размер файла : 3, 77 Гбайт
    Продолжительность : 49 м.
    Общий поток : 10, 8 Мбит/сек
    Название фильма : Game of Thrones S06E01 @ NNM-Club
    Дата кодирования : UTC 2016-04-26 05:20:12
    Программа кодирования : mkvmerge v6.9.1 (\'Blue Panther\') 64bit built on Apr 18 2014 18:23:38
    Библиотека кодирования : libebml v1.3.0 + libmatroska v1.4.1
    Видео
    Идентификатор : 1
    Формат : AVC
    Формат/Информация : Advanced Video Codec
    Профиль формата :High@L4.1
    Параметр CABAC формата : Да
    Параметр ReFrames формата : 4 кадра
    Идентификатор кодека : V_MPEG4/ISO/AVC
    Продолжительность : 49 м.
    Битрейт : 10, 0 Мбит/сек
    Ширина : 1920 пикселей
    Высота : 1078 пикселей
    Соотношение сторон : 16:9
    Режим частоты кадров : Постоянный
    Частота кадров : 23, 976 кадра/сек
    Цветовое пространство : YUV
    Субдискретизация насыщенности : 4:2:0
    Битовая глубина : 8 бит
    Тип развёртки : Прогрессивная
    Бит/(Пиксели*Кадры) : 0.202
    Размер потока : 3, 50 Гбайт (93%)
    Библиотека кодирования : x264 core 148 r2665+53 6629127 t_mod_Custom [8-bit@all X86_64]
    Настройки программы : cabac=1/ref=4/deblock=1:-3:-3/analyse=0x3:0x113/me=umh/subme=11/psy=1/fade_compensate=0.00/psy_rd=1.00:0.00/mixed_ref=1/me_range=32/chroma_me=1/trellis=2/8x8dct=1/cqm=0/deadzone=21, 11/fast_pskip=0/chroma_qp_offset=-2/threads=24/lookahead_threads=4/sliced_threads=0/nr=0/decimate=0/interlaced=0/bluray_compat=0/constrained_intra=0/fgo=0/bframes=8/b_pyramid=2/b_adapt=2/b_bias=0/direct=3/weightb=1/open_gop=0/weightp=2/keyint=250/keyint_min=23/scenecut=40/intra_refresh=0/rc_lookahead=60/rc=crf/mbtree=0/crf=17.0000/qcomp=0.60/qpmin=0:0:0/qpmax=69:69:69/qpstep=4/vbv_maxrate=62500/vbv_bufsize=78125/crf_max=0.0/nal_hrd=none/filler=0/ip_ratio=1.40/pb_ratio=1.30/aq=3:0.80/aq-sensitivity=10.00/aq-factor=1.00:1.00:1.00/aq2=0/aq3=0
    Язык : English
    Default : Да
    Forced : Нет
    Цветовой диапазон : Limited
    Коэффициенты матрицы : BT.709
    Аудио #1
    Идентификатор : 2
    Формат : AC-3
    Формат/Информация : Audio Coding 3
    Расширение режима : CM (complete main)
    Параметр Endianness формата : Big
    Идентификатор кодека : A_AC3
    Продолжительность : 49 м.
    Вид битрейта : Постоянный
    Битрейт : 192 Кбит/сек
    Каналы : 2 канала
    Расположение каналов : Front: L R
    Частота : 48, 0 КГц
    Метод сжатия : С потерями
    Размер потока : 68, 6 Мбайт (2%)
    Язык : Russian
    Default : Да
    Forced : Нет
    Аудио #2
    Идентификатор : 3
    Формат : AC-3
    Формат/Информация : Audio Coding 3
    Расширение режима : CM (complete main)
    Параметр Endianness формата : Big
    Идентификатор кодека : A_AC3
    Продолжительность : 49 м.
    Вид битрейта : Постоянный
    Битрейт : 384 Кбит/сек
    Каналы : 6 каналов
    Расположение каналов : Front: L C R, Side: L R, LFE
    Частота : 48, 0 КГц
    Метод сжатия : С потерями
    Размер потока : 137 Мбайт (4%)
    Язык : English
    Default : Нет
    Forced : Нет
    Текст #1
    Идентификатор : 4
    Формат : SSA
    Идентификатор кодека : S_TEXT/SSA
    Идентификатор кодека/Информация : Sub Station Alpha
    Метод сжатия : Без потерь
    Язык : Russian
    Default : Да
    Forced : Да
    Текст #2
    Идентификатор : 5
    Формат : UTF-8
    Идентификатор кодека : S_TEXT/UTF8
    Идентификатор кодека/Информация : UTF-8 Plain Text
    Язык : Russian
    Default : Нет
    Forced : Нет
    Текст #3
    Идентификатор : 6
    Формат : UTF-8
    Идентификатор кодека : S_TEXT/UTF8
    Идентификатор кодека/Информация : UTF-8 Plain Text
    Язык : English
    Default : Нет
    Forced : Нет


    Скриншоты для ознакомления




    Онлайн видео Игра престолов



    Игра престолов/Game of Thrones (2016) HDTV [H.264/1080p] (сезон 6, серия 1 из 10) (Кравец) (обновляемая)
    загрузка...
    Рейтинг →
     (голосов: 1, оценка 5/5, голосовать можно 1 раз )

    Другие торренты по теме:

  • Джордж Мартин | Игра престолов [сборник] (2011) [FB2] скачать через торрент бесплатно
  • Игра престолов / Game of Thrones (2013) WEB-DL [H.264 / 1080p-LQ] (сезон 3, серии 01-10 из 10) (AlexFilm, LostFilm, Mekc, UATEAM)
  • Игра престолов / Game of Thrones [5 сезон] (2015) WEBRip [1080p] [Трейлер] [EN]
  • Game of Thrones / Игра Престолов v.1.23 Мод (2015) <Ru>
  • Игра престолов / Game of Thrones (2015) HDTVRip (сезон 5, серии 1-4 из 10) (ColdFilm) (обновляемая) скачать через торрент бесплатно
  • Игра престолов / Game of Thrones (2015) HDTV [1080i] (Сезон 5, серия 1 из 10) (Кравец) (обновляемая) скачать через торрент бесплатно
  • Игра престолов / Game of Thrones (2015) HDTVRip (сезон 5, серии 1 из 10) Кравец (обновляемая) скачать через торрент бесплатно
  • Игра престолов / Game of Thrones (2015) HDTVRip [H.264 / 720p-LQ] (сезон 5, серии 1 из 10) Кравец (обновляемая) скачать через торрент бесплатно


    • Комментарии (0):

      Информация

      Информация

        Посетители, находящиеся в группе Гости, не могут оставлять комментарии в данной новости.

        ↓ Меню




        ↓ Опрос

        Вы добавили сайт в закладки?
        Да
        Нет


        Top 10 за месяц (Фильмы)