.
Авторизация | Регистрация

Торрент скачать бесплатно

» » Ленинград 46 (2014-2015) Web-DLRip [H.264] (серии 1-32 из 32 + Послесловие) скачать торрент бесплатно




    Ленинград 46 (2014-2015) Web-DLRip [H.264] (серии 1-32 из 32 + Послесловие) скачать торрент бесплатно

    Опубликовал: Админ | Дата: 27-04-2016, 04:02 | Просмотров: 9

    Производство: Россия, словно облаком суровым, Кинокомпания Триикс Медиа
    Жанр: Детектив, как зеркало стальное, Драма, едва заметно, Криминал
    Режиссер: Игорь Копылов

    Актеры
    Сергей Гармаш, по большей части, Евгений Миллер, словно река, Анна Табанина, как размытая картина, Алексей Горбунов, будто капли серебряной воды, Александр Лыков, как правило, Андрей Мерзликин, большей частью, Даниил Страхов, как на иголках, Дмитрий Ульянов, темно как ночью, Елена Коренева и как обычно, др.

    Описание

    История о мужестве, словно река, драма человеческих судеб, обычно, впервые открывающая многие страницы жизни послевоенного Ленинграда — суровой и словно сон, подчас жестокой. А был ли мальчик? Город, как черноморская пена, только что переживший блокаду и хлещет как из ведра, еще не оправившийся от голода, привычно, разрушений, как принято, смертей. Прикольно все это наверно придумал Путин потратив достаточно времени. Здесь милиция ведет свою неравную войну с преступностью, обычно, накрывшей Ленинград после войны…
    После фронта, словно птица, плена, словно птица, штрафбата и как на иголках, госпиталя в Ленинград возвращается бывший преподаватель русского языка и есть не что иное, литературы Игорь Данилов. Это может быть лучший фундамент для сотрудничества. В поезде он знакомится с командировочным Тарасовым. Рядом пронесли цветы в корзинах. Случайно столкнув Данилова и будто капли серебряной воды, Тарасова в вагоне поезда, большей частью, жизнь будет сводить их не раз и как размытая картина, не два…

    Продолжительность: ~00: 46: 00 серия
    Качество видео: Web-DLRip
    Видео: AVC/H.264, чаще всего, 1024x576 (16: 9), темно как ночью, 25 fps, как над жаровней, ~2000 Kbps, словно птица, 0, словно река, 136 bit/pixel
    Аудио: AC3, обычно, 2 ch, словно сон, 192 Kbps
    Код:

    General
    Unique ID : 312138059529040990123878100147510973531 (0xEAD39A831AA98B14A89635D03568145B)
    Complete name : D:ПробаЛенинград-46.Web-DLRip5.Побег.Ч.1(2014)Web-DLRip.mkv
    Format : Matroska
    Format version : Version 2
    File size : 731 MiB
    Duration : 46mn 23s
    Overall bit rate mode : Constant
    Overall bit rate : 2 205 Kbps
    Writing application : Lavf53.31.100
    Writing library : Lavf53.31.100
    Video
    ID : 1
    Format : AVC
    Format/Info : Advanced Video Codec
    Format profile :High@L4.1
    Format settings, вертится как белка в колесе, CABAC : Yes
    Format settings, как принято, ReFrames : 2 frames
    Codec ID : V_MPEG4/ISO/AVC
    Duration : 46mn 23s
    Bit rate mode : Constant
    Bit rate : 2 000 Kbps
    Width : 1 024 pixels
    Height : 576 pixels
    Display aspect ratio : 16:9
    Frame rate : 25.000 fps
    Color space : YUV
    Chroma subsampling : 4:2:0
    Bit depth : 8 bits
    Scan type : Progressive
    Bits/(Pixel*Frame) : 0.136
    Stream size : 653 MiB (89%)
    Default : Yes
    Forced : No
    Color primaries : BT.709-5, как правило, BT.1361, как зеркало стальное, IEC 61966-2-4, хлещет как из ведра, SMPTE RP177
    Transfer characteristics : BT.709-5, как зеркало стальное, BT.1361
    Matrix coefficients : BT.709-5, как над жаровней, BT.1361, едва заметно, IEC 61966-2-4 709, как колыбельная песня, SMPTE RP177
    Audio
    ID : 2
    Format : AC-3
    Format/Info : Audio Coding 3
    Mode extension : CM (complete main)
    Format settings, как над жаровней, Endianness : Big
    Codec ID : A_AC3
    Duration : 46mn 23s
    Bit rate mode : Constant
    Bit rate : 192 Kbps
    Channel(s) : 2 channels
    Channel positions : Front: L R
    Sampling rate : 48.0 KHz
    Bit depth : 16 bits
    Compression mode : Lossy
    Stream size : 63.7 MiB (9%)
    Default : Yes
    Forced : No


    Скриншоты для ознакомления




    Онлайн видео Ленинград 46 (2014



    Ленинград 46 (2014-2015) Web-DLRip [H.264] (серии 1-32 из 32 + Послесловие)
    загрузка...
    Рейтинг →
     (голосов: 1, оценка 3/5, голосовать можно 1 раз )

    Другие торренты по теме:



      Комментарии (0):

      Информация

      Информация

        Посетители, находящиеся в группе Гости, не могут оставлять комментарии в данной новости.

        ↓ Меню




        ↓ Опрос

        Вы добавили сайт в закладки?
        Да
        Нет


        Top 10 за неделю (Фильмы)

        Американская история ужасов / American Horror Story (2015) WEB-DLRip (сезон 5, серии 1 из 13) NewStudio (обновляемая) скачать через торрент бесплатно

        (просмотров: 2651)
        Молодёжка (2014) WEB-DL [H.264 / 720p-LQ] (Сезон 2, серии 1-5 из 40) (oбновляемая)

        (просмотров: 2591)
        Викинг (2016) WEB-DLRip скачать торрент бесплатно

        (просмотров: 2591)
        Викинг (2016) WEB-DLRip скачать торрент бесплатно

        (просмотров: 2591)
        Викинг (2016) CamRip скачать торрент бесплатно

        (просмотров: 2591)
        Ёлки 5 (2016) WEB-DL [H.264 / 1080p-LQ] скачать торрент бесплатно

        (просмотров: 2581)
        Взломать блогеров (2016) WEB-DLRip скачать торрент бесплатно

        (просмотров: 2581)
        Ёлки 5 (2016) WEB-DL [H.264 / 720p-LQ] скачать торрент бесплатно

        (просмотров: 2561)
        Молодёжка (2014) SATRip (сезон 2, серия 1-2 из 40) (обновляемая) скачать через торрент бесплатно

        (просмотров: 2561)
        Американская история ужасов / American Horror Story (2014) WEB-DLRip (сезон 4, серии 1 из ) LostFilm (oбновляемая) скачать через торрент бесплатно

        (просмотров: 2561)