.
Авторизация | Регистрация
Хочешь лучшие торренты? Добавь свой email!
Добавить

Торрент скачать бесплатно

» » Следователь Тихонов (2016) WEBRip (серии 1-20 из 20) торрент скачать бесплатно




    Следователь Тихонов (2016) WEBRip (серии 1-20 из 20) торрент скачать бесплатно

    Опубликовал: Админ | Дата: 27-04-2016, 04:02 | Просмотров: 8

    Производство: Россия/Нон-Стоп Продакшн
    Жанр: Детектив, Криминал
    Режиссер: Сергей Снежкин, Эдуард Оганесян

    Актеры
    Михаил Ефремов, Юрий Ицков, Сергей Шакуров, Светлана Иванова, Виктория Толстоганова, Аглая Тарасова, Евгений Харланов, Мария Миронова, Фёдор Бондарчук, Сергей Гармаш и др.

    Описание

    Станислав Тихонов следователь по особо важным делам московского уголовного розыска. Вместе со своей оперативной группой Тихонов расследует самые громкие преступления, совершенные в 1970-х годах. Среди них похищение бесценной скрипки Страдивари, исчезновение метапроптизола — уникального лекарства против страха, вывоз контрабандой ордена Святого Александра Невского.Сложные, запутанные расследования, дерзкие решения, опасные погони — следователь Тихонов не зря считается лучшим специалистом в раскрытии самых запутанных дел. Благодатная почва, сказал кто то из толпы, к чему не понятно. Но и его личная жизнь полна самых неожиданных событий — в него влюбляются самые красивые женщины столицы, а самому Тихонову для счастья нужна только одна-единственная, но кто она — он и сам определиться не может.

    Дата российской премьеры: 11 апреля 2016
    Продолжительность: ~ 00: 45: 00 серия
    Качество видео: WEBRip
    Видео: Xvid, 720x400 (16: 9), ~1198 Kbps
    Аудио: AC3, 2 ch, 192 Kbps, CBR
    Код:

    Общее
    Полное имя : D:Мои фильмыSledovatel\'_Tihonov_1-20iz20_2016_XviD_WEBRip1.Визит к Минотавру.(1 сер.).avi
    Формат : AVI
    Формат/Информация : Audio Video Interleave
    Размер файла : 446 Мбайт
    Продолжительность : 44 м.
    Общий поток : 1400 Кбит/сек
    Программа кодирования : VirtualDubMod 1.5.10.2 (build 2540/release)
    Библиотека кодирования : VirtualDub build 35491/release
    Видео
    Идентификатор : 0
    Формат : MPEG-4 Visual
    Профиль формата : Advanced Simple@L5
    Параметр BVOP формата : 2
    Параметр QPel формата : Нет
    Параметр GMC формата : Без точки перехода
    Параметр матрицы формата : Default (H.263)
    Идентификатор кодека : XVID
    Идентификатор кодека/Подсказка : XviD
    Продолжительность : 44 м.
    Битрейт : 1198 Кбит/сек
    Ширина : 720 пикселей
    Высота : 400 пикселей
    Соотношение сторон : 16:9
    Частота кадров : 25, 000 кадров/сек
    Цветовое пространство : YUV
    Субдискретизация насыщенности : 4:2:0
    Битовая глубина : 8 бит
    Тип развёртки : Прогрессивная
    Метод сжатия : С потерями
    Бит/(Пиксели*Кадры) : 0.166
    Размер потока : 382 Мбайт (86%)
    Библиотека кодирования : XviD 67
    Аудио
    Идентификатор : 1
    Формат : AC-3
    Формат/Информация : Audio Coding 3
    Расширение режима : CM (complete main)
    Параметр Endianness формата : Big
    Идентификатор кодека : 2000
    Продолжительность : 44 м.
    Вид битрейта : Постоянный
    Битрейт : 192 Кбит/сек
    Каналы : 2 канала
    Расположение каналов : Front: L R
    Частота : 48, 0 КГц
    Частота кадров : 31, 250 кадров/сек (1536 spf)
    Метод сжатия : С потерями
    Размер потока : 61, 1 Мбайт (14%)
    Выравнивание : Соединение по промежуткам
    Продолжительность промежутка : 40 мс. (1, 00 видеокадр)
    Время предзагрузки промежутка : 512 мс.


    Скриншоты для ознакомления




    Онлайн видео Следователь Тихонов (2016) WEBRip (серии 1



    Следователь Тихонов (2016) WEBRip (серии 1-20 из 20)
    загрузка...
    Рейтинг →
     (голосов: 1, оценка 5/5, голосовать можно 1 раз )

    Другие торренты по теме:

  • Следователь Тихонов (2015) SATRip [H.264] (1 серия из 20) (Обновляемая)
  • Следователь Тихонов (2016) HDTVRip (серии 1-3 из 20) (обновляемая)
  • Следователь Тихонов (2016) HDTV [H.264 / 1080i] (серии 1-3 из 20) (обновляемая)
  • Следователь Тихонов (2016) HDTVRip [H.264 / 720p-LQ] (серии 1-3 из 20) (обновляемая)
  • Следователь Тихонов (2016) SATRip (серия 1-6 из 20) Обновляемая
  • Следователь Тихонов (2016) WEB-DLRip (серии 1-8 из 20) (обновляемая)
  • Следователь Тихонов (2016) WEB-DLRip [H.264 / 720p-LQ] (серии 1-8 из 20) (обновляемая)
  • Следователь Тихонов (2016) HDTVRip [H.264] (сезон 1, серии 1-20 из 20) [MP4|640x480@852x480] [AD]


    • Комментарии (0):

      Информация

      Информация

        Посетители, находящиеся в группе Гости, не могут оставлять комментарии в данной новости.

        ↓ Меню




        ↓ Опрос

        Вы добавили сайт в закладки?
        Да
        Нет


        Top 10 за месяц (Фильмы)