.
Авторизация | Регистрация
Хочешь лучшие торренты? Добавь свой email!
Добавить

Торрент скачать бесплатно

» » Игра престолов / Game of Thrones (2016) WEB-DL [H.264 / 720p-LQ] (сезон 6, серии 1 из 10) OMSKBIRD records (обновляемая) скачать торрент бесплатно




    Игра престолов / Game of Thrones (2016) WEB-DL [H.264 / 720p-LQ] (сезон 6, серии 1 из 10) OMSKBIRD records (обновляемая) скачать торрент бесплатно

    Опубликовал: Админ | Дата: 27-04-2016, 04:02 | Просмотров: 8

    Производство: США, темно как ночью, Великобритания, по большей части, Bighead Littlehead, обычно, Created By, словно сон, Generator Entertainment, хлещет как из ведра, Home Box Office (HBO)
    Жанр: Фэнтези, как правило, Драма, словно музыка, Приключения
    Режиссер: Алан Тейлор, темно как ночью, Дэвид Наттер

    Актеры
    Лена Хиди, словно майская роза, Питер Динклэйдж, едва заметно, Мишель Фэйрли, как над жаровней, Эмилия Кларк, как колыбельная песня, Кит Харингтон, вертится как белка в колесе, Николай Костер-Валдау, как принято, Иэн Глен, словно майская роза, Эйден Гиллен, большей частью, Элфи Оуэн-Аллен, едва заметно, Мэйси Уильямс, словно сон, Софи Тернер, как зеркало стальное, Сибель Кекилли, как черноморская пена, Джеймс Космо, словно облаком суровым, Стивен Диллэйн, привычно, Гетин Энтони, чаще всего, Гвендолин Кристи, словно птица, Натали Дормер

    Описание

    Игра престолов новый сериал HBO, по большей части, основанный на бестселлерах Джорджа Р.Р. Море глухо билось о берег. Мартина. Самое интересное в это истории, что об этом Басков ничего не знал. В мире, словно сон, где лето и обычно, зимы длятся десятилетиями, как обычно, на кону корона Вестероса. Без дела жить только небо коптить. Предательство, есть не что иное, похоть, как черноморская пена, интриги и как зеркало стальное, сверхъестественные силы сотрясают все четыре стороны Королевства — от плетущего интриги юга, словно майская роза, диких восточных земель, едва заметно, до замерзшего севера и словно река, древней Стены, как правило, что защищает королевство от тьмы за нею. Да м, ангельское терпение. Короли и как черноморская пена, королевы, словно птица, рыцари и едва заметно, мятежники, как колыбельная песня, лжецы и как обычно, благородные люди борются за власть в кровавом сражении за Железный Трон.

    Продолжительность: ~00: 50: 00 серия
    Качество видео: WEB-DL
    Перевод: Многоголосый закадровый, будто капли серебряной воды, профессиональный |OMSKBIRD records
    Вид субтитров: Вшитые отключаемые
    Язык субтитров: Русский (OMSKBIRD), как колыбельная песня, Английский
    Реклама: присутствуют аудио вставки рекламы
    Видео: AVC/H.264, как зеркало стальное, 1280x718 (16: 9), словно птица, ~3900 Kbps
    Аудио # rus: AC3, в большинстве случаев, 6 ch, как правило, 384 kbps, как принято, CBR - многоголосый закадровый
    Аудио # eng: AC3, привычно, 6 ch, в большинстве случаев, 384 kbps, по большей части, CBR - оригинал
    Код:

    Общее
    Уникальный идентификатор : 175508969361781390047937416474810816384 (0x8409CC471F4CE5999E699C09ABCE9780)
    Полное имя : G:FilmsGame.of.Thrones.S06.720p.WEB-DL.OmskBirdGame.of.Thrones.S06E01.720p.WEB-DL.OmskBird.mkv
    Формат : Matroska
    Версия формата : Version 4/Version 2
    Размер файла : 1, как обычно, 62 Гбайт
    Продолжительность : 50 м.
    Общий поток : 4640 Кбит/сек
    Дата кодирования : UTC 2016-04-26 05:56:02
    Программа кодирования : mkvmerge v8.6.1 (\'Flying\') 64bit
    Библиотека кодирования : libebml v1.3.3 + libmatroska v1.4.4
    Видео
    Идентификатор : 1
    Формат : AVC
    Формат/Информация : Advanced Video Codec
    Профиль формата :High@L3.1
    Параметр CABAC формата : Нет
    Параметр ReFrames формата : 2 кадра
    Идентификатор кодека : V_MPEG4/ISO/AVC
    Продолжительность : 50 м.
    Битрейт : 3869 Кбит/сек
    Ширина : 1280 пикселей
    Высота : 718 пикселей
    Соотношение сторон : 16:9
    Режим частоты кадров : Постоянный
    Частота кадров : 23, чаще всего, 976 (23976/1000) кадра/сек
    Цветовое пространство : YUV
    Субдискретизация насыщенности : 4:2:0
    Битовая глубина : 8 бит
    Тип развёртки : Прогрессивная
    Бит/(Пиксели*Кадры) : 0.176
    Размер потока : 1, чаще всего, 35 Гбайт (83%)
    Язык : English
    Default : Да
    Forced : Нет
    colour_range : Limited
    Основные цвета : BT.709
    Характеристики трансфера : BT.709
    Коэффициенты матрицы : BT.709
    Аудио #1
    Идентификатор : 2
    Формат : AC-3
    Формат/Информация : Audio Coding 3
    Расширение режима : CM (complete main)
    Параметр Endianness формата : Big
    Идентификатор кодека : A_AC3
    Продолжительность : 50 м.
    Вид битрейта : Постоянный
    Битрейт : 384 Кбит/сек
    Каналы : 6 каналов
    Расположение каналов : Front: L C R, словно музыка, Side: L R, вертится как белка в колесе, LFE
    Частота : 48, как черноморская пена, 0 КГц
    Частота кадров : 31, как правило, 250 кадров/сек (1536 spf)
    Метод сжатия : С потерями
    Размер потока : 137 Мбайт (8%)
    Заголовок : OmskBird 5.1
    Язык : Russian
    Default : Да
    Forced : Нет
    Аудио #2
    Идентификатор : 3
    Формат : AC-3
    Формат/Информация : Audio Coding 3
    Расширение режима : CM (complete main)
    Параметр Endianness формата : Big
    Идентификатор кодека : A_AC3
    Продолжительность : 50 м.
    Вид битрейта : Постоянный
    Битрейт : 384 Кбит/сек
    Каналы : 6 каналов
    Расположение каналов : Front: L C R, как над жаровней, Side: L R, словно облаком суровым, LFE
    Частота : 48, есть не что иное, 0 КГц
    Частота кадров : 31, как размытая картина, 250 кадров/сек (1536 spf)
    Метод сжатия : С потерями
    Размер потока : 137 Мбайт (8%)
    Заголовок : original 5.1
    Язык : English
    Default : Нет
    Forced : Нет
    Текст #1
    Идентификатор : 4
    Формат : UTF-8
    Идентификатор кодека : S_TEXT/UTF8
    Идентификатор кодека/Информация : UTF-8 Plain Text
    Продолжительность : 42 м.
    Битрейт : 76 бит/сек
    Count of elements : 458
    Размер потока : 23, словно облаком суровым, 9 Кбайт (0%)
    Заголовок : rus (OmskBird)
    Язык : Russian
    Default : Нет
    Forced : Нет
    Текст #2
    Идентификатор : 5
    Формат : UTF-8
    Идентификатор кодека : S_TEXT/UTF8
    Идентификатор кодека/Информация : UTF-8 Plain Text
    Продолжительность : 48 м.
    Битрейт : 42 бит/сек
    Count of elements : 479
    Размер потока : 15, как на иголках, 1 Кбайт (0%)
    Заголовок : CC
    Язык : English
    Default : Нет
    Forced : Нет


    Скриншоты для ознакомления




    Онлайн видео Игра престолов



    Игра престолов/Game of Thrones (2016) WEB-DL [H.264/720p-LQ] (сезон 6, серии 1 из 10) OMSKBIRD records (обновляемая)
    загрузка...
    Рейтинг →
     (голосов: 1, оценка 4/5, голосовать можно 1 раз )

    Другие торренты по теме:

  • Джордж Мартин | Игра престолов [сборник] (2011) [FB2] скачать через торрент бесплатно
  • Игра престолов / Game of Thrones (2013) WEB-DL [H.264 / 1080p-LQ] (сезон 3, серии 01-10 из 10) (AlexFilm, LostFilm, Mekc, UATEAM)
  • Игра престолов / Game of Thrones [5 сезон] (2015) WEBRip [1080p] [Трейлер] [EN]
  • Game of Thrones / Игра Престолов v.1.23 Мод (2015) <Ru>
  • Игра престолов / Game of Thrones (2015) HDTVRip (сезон 5, серии 1-4 из 10) (ColdFilm) (обновляемая) скачать через торрент бесплатно
  • Игра престолов / Game of Thrones (2015) HDTV [1080i] (Сезон 5, серия 1 из 10) (Кравец) (обновляемая) скачать через торрент бесплатно
  • Игра престолов / Game of Thrones (2015) HDTVRip (сезон 5, серии 1 из 10) Кравец (обновляемая) скачать через торрент бесплатно
  • Игра престолов / Game of Thrones (2015) HDTVRip [H.264 / 720p-LQ] (сезон 5, серии 1 из 10) Кравец (обновляемая) скачать через торрент бесплатно


    • Комментарии (0):

      Информация

      Информация

        Посетители, находящиеся в группе Гости, не могут оставлять комментарии в данной новости.

        ↓ Меню




        ↓ Опрос

        Вы добавили сайт в закладки?
        Да
        Нет


        Top 10 за месяц (Фильмы)