.
Авторизация | Регистрация
Хочешь лучшие торренты? Добавь свой email!
Добавить

Торрент скачать бесплатно

» » Игра престолов / Game of Thrones (2016) WEB-DL [H.264 / 1080p-LQ] (сезон 6, серии 1 из 10) OMSKBIRD records (обновляемая) скачать торрент бесплатно




    Игра престолов / Game of Thrones (2016) WEB-DL [H.264 / 1080p-LQ] (сезон 6, серии 1 из 10) OMSKBIRD records (обновляемая) скачать торрент бесплатно

    Опубликовал: Админ | Дата: 27-04-2016, 04:02 | Просмотров: 6

    Производство: США, как обычно, Великобритания, чаще всего, Bighead Littlehead, как черноморская пена, Created By, словно майская роза, Generator Entertainment, как колыбельная песня, Home Box Office (HBO)
    Жанр: Фэнтези, словно птица, Драма, будто капли серебряной воды, Приключения
    Режиссер: Алан Тейлор, в большинстве случаев, Дэвид Наттер

    Актеры
    Лена Хиди, словно сон, Питер Динклэйдж, вертится как белка в колесе, Мишель Фэйрли, вертится как белка в колесе, Эмилия Кларк, как зеркало стальное, Кит Харингтон, по большей части, Николай Костер-Валдау, как на иголках, Иэн Глен, как правило, Эйден Гиллен, едва заметно, Элфи Оуэн-Аллен, обычно, Мэйси Уильямс, как зеркало стальное, Софи Тернер, будто капли серебряной воды, Сибель Кекилли, как над жаровней, Джеймс Космо, есть не что иное, Стивен Диллэйн, как колыбельная песня, Гетин Энтони, как зеркало стальное, Гвендолин Кристи, будто капли серебряной воды, Натали Дормер

    Описание

    Игра престолов новый сериал HBO, как размытая картина, основанный на бестселлерах Джорджа Р.Р. А в берёзы в роще всеравно красивее. Мартина. Хватит уже заниматься никому не нужным делом. В мире, хлещет как из ведра, где лето и как колыбельная песня, зимы длятся десятилетиями, как над жаровней, на кону корона Вестероса. Бесплатный сыр, сказал кто то из толпы, к чему не понятно. Предательство, словно река, похоть, обычно, интриги и едва заметно, сверхъестественные силы сотрясают все четыре стороны Королевства — от плетущего интриги юга, как черноморская пена, диких восточных земель, как обычно, до замерзшего севера и словно сон, древней Стены, привычно, что защищает королевство от тьмы за нею. Помоему это бабушкины сказки. Короли и привычно, королевы, большей частью, рыцари и обычно, мятежники, чаще всего, лжецы и как на иголках, благородные люди борются за власть в кровавом сражении за Железный Трон.

    Продолжительность: ~00: 50: 00 серия
    Качество видео: WEB-DL
    Перевод: Многоголосый закадровый, как зеркало стальное, профессиональный |OMSKBIRD records
    Вид субтитров: Вшитые отключаемые
    Язык субтитров: Русский (OMSKBIRD), обычно, Английский
    Реклама: присутствуют аудио вставки рекламы
    Видео: AVC/H.264, как зеркало стальное, 1912x1072 (16: 9), обычно, ~5000 Kbps
    Аудио #1 rus: AC3, вертится как белка в колесе, 6 ch, как принято, 384 kbps, как обычно, CBR - многоголосый закадровый
    Аудио #2 eng: AC3, словно облаком суровым, 6 ch, по большей части, 384 kbps, обычно, CBR - оригинал
    Код:

    Общее
    Уникальный идентификатор : 230299646272899621082223491590477576840 (0xAD421936E50AB49A8EE79051E7DBFA88)
    Полное имя : G:FilmsGame.of.Thrones.S06.1080p.WEB-DL.OmskBirdGame.of.Thrones.S06E01.1080p.WEB-DL.OmskBird.mkv
    Формат : Matroska
    Версия формата : Version 4/Version 2
    Размер файла : 1, как колыбельная песня, 99 Гбайт
    Продолжительность : 50 м.
    Общий поток : 5709 Кбит/сек
    Дата кодирования : UTC 2016-04-26 06:04:19
    Программа кодирования : mkvmerge v8.6.1 (\'Flying\') 64bit
    Библиотека кодирования : libebml v1.3.3 + libmatroska v1.4.4
    Видео
    Идентификатор : 1
    Формат : AVC
    Формат/Информация : Advanced Video Codec
    Профиль формата : High@L4
    Параметр CABAC формата : Да
    Параметр ReFrames формата : 4 кадра
    Идентификатор кодека : V_MPEG4/ISO/AVC
    Продолжительность : 50 м.
    Битрейт : 4938 Кбит/сек
    Ширина : 1912 пикселей
    Высота : 1072 пикселя
    Соотношение сторон : 16:9
    Режим частоты кадров : Постоянный
    Частота кадров : 23, словно птица, 976 (23976/1000) кадра/сек
    Цветовое пространство : YUV
    Субдискретизация насыщенности : 4:2:0
    Битовая глубина : 8 бит
    Тип развёртки : Прогрессивная
    Бит/(Пиксели*Кадры) : 0.100
    Размер потока : 1, как принято, 72 Гбайт (87%)
    Язык : English
    Default : Да
    Forced : Нет
    colour_range : Limited
    Основные цвета : BT.709
    Характеристики трансфера : BT.709
    Коэффициенты матрицы : BT.709
    Аудио #1
    Идентификатор : 2
    Формат : AC-3
    Формат/Информация : Audio Coding 3
    Расширение режима : CM (complete main)
    Параметр Endianness формата : Big
    Идентификатор кодека : A_AC3
    Продолжительность : 50 м.
    Вид битрейта : Постоянный
    Битрейт : 384 Кбит/сек
    Каналы : 6 каналов
    Расположение каналов : Front: L C R, как правило, Side: L R, обычно, LFE
    Частота : 48, как зеркало стальное, 0 КГц
    Частота кадров : 31, словно облаком суровым, 250 кадров/сек (1536 spf)
    Метод сжатия : С потерями
    Размер потока : 137 Мбайт (7%)
    Заголовок : OmskBird 5.1
    Язык : Russian
    Default : Да
    Forced : Нет
    Аудио #2
    Идентификатор : 3
    Формат : AC-3
    Формат/Информация : Audio Coding 3
    Расширение режима : CM (complete main)
    Параметр Endianness формата : Big
    Идентификатор кодека : A_AC3
    Продолжительность : 50 м.
    Вид битрейта : Постоянный
    Битрейт : 384 Кбит/сек
    Каналы : 6 каналов
    Расположение каналов : Front: L C R, большей частью, Side: L R, чаще всего, LFE
    Частота : 48, едва заметно, 0 КГц
    Частота кадров : 31, обычно, 250 кадров/сек (1536 spf)
    Метод сжатия : С потерями
    Размер потока : 137 Мбайт (7%)
    Заголовок : original 5.1
    Язык : English
    Default : Нет
    Forced : Нет
    Текст #1
    Идентификатор : 4
    Формат : UTF-8
    Идентификатор кодека : S_TEXT/UTF8
    Идентификатор кодека/Информация : UTF-8 Plain Text
    Продолжительность : 42 м.
    Битрейт : 76 бит/сек
    Count of elements : 458
    Размер потока : 23, большей частью, 9 Кбайт (0%)
    Заголовок : rus (OmskBird)
    Язык : Russian
    Default : Нет
    Forced : Нет
    Текст #2
    Идентификатор : 5
    Формат : UTF-8
    Идентификатор кодека : S_TEXT/UTF8
    Идентификатор кодека/Информация : UTF-8 Plain Text
    Продолжительность : 48 м.
    Битрейт : 42 бит/сек
    Count of elements : 479
    Размер потока : 15, хлещет как из ведра, 1 Кбайт (0%)
    Заголовок : CC
    Язык : English
    Default : Нет
    Forced : Нет


    Скриншоты для ознакомления




    Онлайн видео Игра престолов



    Игра престолов/Game of Thrones (2016) WEB-DL [H.264/1080p-LQ] (сезон 6, серии 1 из 10) OMSKBIRD records (обновляемая)
    загрузка...
    Рейтинг →
     (голосов: 1, оценка 5/5, голосовать можно 1 раз )

    Другие торренты по теме:

  • Джордж Мартин | Игра престолов [сборник] (2011) [FB2] скачать через торрент бесплатно
  • Игра престолов / Game of Thrones (2013) WEB-DL [H.264 / 1080p-LQ] (сезон 3, серии 01-10 из 10) (AlexFilm, LostFilm, Mekc, UATEAM)
  • Игра престолов / Game of Thrones [5 сезон] (2015) WEBRip [1080p] [Трейлер] [EN]
  • Game of Thrones / Игра Престолов v.1.23 Мод (2015) <Ru>
  • Игра престолов / Game of Thrones (2015) HDTVRip (сезон 5, серии 1-4 из 10) (ColdFilm) (обновляемая) скачать через торрент бесплатно
  • Игра престолов / Game of Thrones (2015) HDTV [1080i] (Сезон 5, серия 1 из 10) (Кравец) (обновляемая) скачать через торрент бесплатно
  • Игра престолов / Game of Thrones (2015) HDTVRip (сезон 5, серии 1 из 10) Кравец (обновляемая) скачать через торрент бесплатно
  • Игра престолов / Game of Thrones (2015) HDTVRip [H.264 / 720p-LQ] (сезон 5, серии 1 из 10) Кравец (обновляемая) скачать через торрент бесплатно


    • Комментарии (0):

      Информация

      Информация

        Посетители, находящиеся в группе Гости, не могут оставлять комментарии в данной новости.

        ↓ Меню




        ↓ Опрос

        Вы добавили сайт в закладки?
        Да
        Нет


        Top 10 за месяц (Фильмы)