.
Авторизация | Регистрация
Хочешь лучшие торренты? Добавь свой email!
Добавить

Торрент скачать бесплатно

» » Подкидыши / Окно жизни (2016) WEB-DLRip (сезон 1, серии 1-16 из 24) (обновляемая) торрент скачать бесплатно




    Подкидыши / Окно жизни (2016) WEB-DLRip (сезон 1, серии 1-16 из 24) (обновляемая) торрент скачать бесплатно

    Опубликовал: Админ | Дата: 27-04-2016, 04:02 | Просмотров: 28

    Производство: Россия, Украина, WTW Films Limited
    Жанр: Мелодрама
    Режиссер: Максим Паперник, Владимир Мельниченко

    Актеры
    Екатерина Решетникова, Валерия Шкирандо, Константин Самоуков, Александр Мохов, Наталия Васько, Инна Мирошниченко

    Описание

    Одни готовы отдать любые деньги, чтобы услышать от врача Поздравляю, вы беременны и познать радость материнства. Другие, наоборот, способны добровольно отказаться от маленького счастья и передать новорождённого в руки врачей, не думая о том, что ждёт его в будущем. Кого из малышей ждёт счастливая жизнь в новой семье? Кому не повезёт с приёмными родителями? А кто окажется в детдоме или на грани жизни и смерти? О детях, оставленных в специальном боксе для новорождённых, будут заботиться врачи во главе с заведующей отделением Верой Соколовой.

    Релиз от: Files-х
    Продолжительность: ~ 00: 48: 00 серия
    Качество видео: WEB-DLRip
    Видео: Xvid, 720x400, ~1800 Кбит/с
    Аудио: AC3, 2 ch, 192 Кбит/с
    Код:

    Общее
    Полное имя : D:Подкидыши.2016.WEB-DLRip.Files-х1.Подкидыши.2016.WEB-DLRip.Files-х.avi
    Формат : AVI
    Формат/Информация : Audio Video Interleave
    Размер файла : 691 Мбайт
    Продолжительность : 48 м.
    Общий поток : 1996 Кбит/сек
    Программа кодирования : VirtualDubMod 1.5.10.3 |www.virtualdub-fr.org|| (build 2550/release)
    Библиотека кодирования : VirtualDubMod build 2550/release
    Видео
    Идентификатор : 0
    Формат : MPEG-4 Visual
    Профиль формата : Advanced Simple@L5
    Параметр BVOP формата : 1
    Параметр QPel формата : Нет
    Параметр GMC формата : Без точки перехода
    Параметр матрицы формата : Выборочная
    Идентификатор кодека : XVID
    Идентификатор кодека/Подсказка : XviD
    Продолжительность : 48 м.
    Битрейт : 1795 Кбит/сек
    Ширина : 720 пикселей
    Высота : 400 пикселей
    Соотношение сторон : 16:9
    Частота кадров : 25, 000 кадров/сек
    Цветовое пространство : YUV
    Субдискретизация насыщенности : 4:2:0
    Битовая глубина : 8 бит
    Тип развёртки : Прогрессивная
    Метод сжатия : С потерями
    Бит/(Пиксели*Кадры) : 0.249
    Размер потока : 621 Мбайт (90%)
    Библиотека кодирования : XviD 73
    Аудио
    Идентификатор : 1
    Формат : AC-3
    Формат/Информация : Audio Coding 3
    Расширение режима : CM (complete main)
    Параметр Endianness формата : Big
    Идентификатор кодека : 2000
    Продолжительность : 48 м.
    Вид битрейта : Постоянный
    Битрейт : 192 Кбит/сек
    Каналы : 2 канала
    Расположение каналов : Front: L R
    Частота : 48, 0 КГц
    Частота кадров : 31, 250 кадров/сек (1536 spf)
    Метод сжатия : С потерями
    Размер потока : 66, 5 Мбайт (10%)
    Выравнивание : Разделение по промежуткам
    Продолжительность промежутка : 40 мс. (1, 00 видеокадр)
    Время предзагрузки промежутка : 500 мс.


    Скриншоты для ознакомления




    Онлайн видео Подкидыши



    Подкидыши/Окно жизни (2016) WEB-DLRip (сезон 1, серии 1-16 из 24) (обновляемая)
    загрузка...
    Рейтинг →
     (голосов: 1, оценка 4/5, голосовать можно 1 раз )

    Другие торренты по теме:

  • Подкидыши / Окно жизни (2016) SATRip (сезон 1, серии 1-24 из 24)
  • Подкидыши / Окно жизни (2017) WEBRip (сезон 2, серии 1-24 из 24)
  • Подкидыши / Окно жизни (2017) WEB-DLRip [H.264] (сезон 2, серии 1-24 из 24)
  • Подкидыши / Окно жизни (2017) WEB-DL [H.264 / 720p-LQ] (сезон 2, серии 1-24 из 24)


    • Комментарии (0):

      Информация

      Информация

        Посетители, находящиеся в группе Гости, не могут оставлять комментарии в данной новости.

        ↓ Меню




        ↓ Опрос

        Вы добавили сайт в закладки?
        Да
        Нет


        Top 10 за месяц (Фильмы)