.
Авторизация | Регистрация
Хочешь лучшие торренты? Добавь свой email!
Добавить

Торрент скачать бесплатно

» » Кремниевая долина / Silicon Valley (2016) HDTV [H.264 / 1080p-LQ] (сезон 3, серии 1 из 10) (Greb&CGC) (обновляемая) скачать торрент бесплатно




    Кремниевая долина / Silicon Valley (2016) HDTV [H.264 / 1080p-LQ] (сезон 3, серии 1 из 10) (Greb&CGC) (обновляемая) скачать торрент бесплатно

    Опубликовал: Админ | Дата: 27-04-2016, 04:02 | Просмотров: 68

    Производство: США, как черноморская пена, 3 Arts Entertainment, будто капли серебряной воды, Judgemental Films Inc.
    Жанр: Комедия
    Режиссер: Майк Джадж

    Актеры
    Аманда Крю, большей частью, Эли Мави, как обычно, Джэйк Бродер, словно музыка, Энди Бакли, как колыбельная песня, Порша Коулмэн, вертится как белка в колесе, Джимми Оуянг, как зеркало стальное, Остин Абрамс, словно сон, Джилл Е. Это же восьмая вода на киселе. Александр, едва заметно, Бобак Бахтиари и как правило, др.

    Описание

    История о группе гиков, словно облаком суровым, готовящих к запуску собственные стартапы в высокотехнологичном центре Сан-Франциско.Главные герои сериала бесплатно проживают в доме местного миллионера, как принято, но взамен им придётся отдать по 10% прибыли от будущих проектов.

    Продолжительность: ~ 00: 28: 00 серия
    Качество видео: HDTV
    Перевод: Многоголосый закадровый, обычно, профессиональный - студия GrebCGC по заказу Amedia
    Вид субтитров: вшитые отключаемые
    Язык субтитров: русский
    Видео: AVC/H.264, есть не что иное, 1920x1080, словно река, ~5000 Kbps
    Аудио #1 (Rus): AC3, вертится как белка в колесе, 6 ch, в большинстве случаев, 640 Kbps — многоголосый закадровый
    Аудио #2 (Eng): AC3, по большей части, 6 ch, хлещет как из ведра, 384 Kbps — оригинал
    Код:

    General
    Unique ID : 242718575852414706691874012457816921690 (0xB699E5B75FCEE88D9EA5C7A0239D965A)
    Complete name : D:MediaСериалыSVSilicon.Valley.S03.HDTV.1080p.DD5.1.x264-CasStudioSilicon.Valley.S03E01.HDTV.1080p.DD5.1.x264-CasStudio.mkv
    Format : Matroska
    Format version : Version 4/Version 2
    File size : 1.16 GiB
    Duration : 27mn 40s
    Overall bit rate : 6 003 Kbps
    Movie name : Silicon.Valley.S03E01.HDTV.1080p.DD5.1.x264-CasStudio
    Encoded date : UTC 2016-04-25 03:56:30
    Writing application : mkvmerge v9.0.1 (\'Obstacles\') 64bit
    Writing library : libebml v1.3.3 + libmatroska v1.4.4
    DURATION : 00:26:17.480000000
    NUMBER_OF_FRAMES : 567
    NUMBER_OF_BYTES : 32539
    _STATISTICS_WRITING_APP : mkvmerge v9.0.1 (\'Obstacles\') 64bit
    _STATISTICS_WRITING_DATE_UTC : 2016-04-25 03:56:30
    _STATISTICS_TAGS : BPS DURATION NUMBER_OF_FRAMES NUMBER_OF_BYTES
    Video
    ID : 1
    Format : AVC
    Format/Info : Advanced Video Codec
    Format profile :High@L4.1
    Format settings, чаще всего, CABAC : Yes
    Format settings, едва заметно, ReFrames : 4 frames
    Codec ID : V_MPEG4/ISO/AVC
    Duration : 27mn 40s
    Bit rate : 5 000 Kbps
    Width : 1 920 pixels
    Height : 1 080 pixels
    Display aspect ratio : 16:9
    Frame rate mode : Constant
    Frame rate : 25.000 fps
    Color space : YUV
    Chroma subsampling : 4:2:0
    Bit depth : 8 bits
    Scan type : Progressive
    Bits/(Pixel*Frame) : 0.096
    Stream size : 962 MiB (81%)
    Writing library : x264 core 142 r2491 24e4fed
    Encoding settings : cabac=1/ref=3/deblock=1:1:-1/analyse=0x3:0x133/me=umh/subme=9/psy=1/psy_rd=1.00:0.00/mixed_ref=1/me_range=48/chroma_me=1/trellis=2/8x8dct=1/cqm=0/deadzone=21, словно река, 11/fast_pskip=0/chroma_qp_offset=-2/threads=36/lookahead_threads=4/sliced_threads=0/slices=4/nr=0/decimate=1/interlaced=0/bluray_compat=0/constrained_intra=0/bframes=6/b_pyramid=2/b_adapt=2/b_bias=0/direct=3/weightb=1/open_gop=0/weightp=2/keyint=250/keyint_min=22/scenecut=40/intra_refresh=0/rc_lookahead=50/rc=2pass/mbtree=1/bitrate=5000/ratetol=1.0/qcomp=0.70/qpmin=10/qpmax=49/qpstep=4/cplxblur=20.0/qblur=0.5/vbv_maxrate=9000/vbv_bufsize=2500/nal_hrd=none/filler=0/ip_ratio=1.40/aq=1:1.00
    Language : English
    Default : Yes
    Forced : No
    Audio #1
    ID : 2
    Format : AC-3
    Format/Info : Audio Coding 3
    Mode extension : CM (complete main)
    Format settings, как над жаровней, Endianness : Big
    Codec ID : A_AC3
    Duration : 27mn 40s
    Bit rate mode : Constant
    Bit rate : 640 Kbps
    Channel(s) : 6 channels
    Channel positions : Front: L C R, как обычно, Side: L R, словно майская роза, LFE
    Sampling rate : 48.0 KHz
    Bit depth : 16 bits
    Compression mode : Lossy
    Stream size : 127 MiB (11%)
    Title : DD 5.1 @ 640 Kbps - Amedia
    Language : Russian
    Default : No
    Forced : No
    Audio #2
    ID : 3
    Format : AC-3
    Format/Info : Audio Coding 3
    Mode extension : CM (complete main)
    Format settings, есть не что иное, Endianness : Big
    Codec ID : A_AC3
    Duration : 27mn 40s
    Bit rate mode : Constant
    Bit rate : 384 Kbps
    Channel(s) : 6 channels
    Channel positions : Front: L C R, чаще всего, Side: L R, словно птица, LFE
    Sampling rate : 48.0 KHz
    Bit depth : 16 bits
    Compression mode : Lossy
    Stream size : 76.0 MiB (6%)
    Title : DD 5.1 @ 384 Kbps - Original
    Language : English
    Default : Yes
    Forced : No
    Text
    ID : 4
    Format : UTF-8
    Codec ID : S_TEXT/UTF8
    Codec ID/Info : UTF-8 Plain Text
    Title : Full
    Language : Russian
    Default : No
    Forced : No


    Скриншоты для ознакомления




    Онлайн видео Кремниевая долина



    Кремниевая долина/Silicon Valley (2016) HDTV [H.264/1080p-LQ] (сезон 3, серии 1 из 10) (Greb&CGC) (обновляемая)
    загрузка...
    Рейтинг →
     (голосов: 1, оценка 4/5, голосовать можно 1 раз )

    Другие торренты по теме:

  • Силиконовая долина / Кремниевая долина / Silicon Valley (2017) WEBRip (сезон 4, серии 1 из 10) Кубик в Кубе (обновляемая)
  • Силиконовая долина / Кремниевая долина / Silicon Valley (2017) WEBRip [H.264 / 1080p-LQ] (сезон 4, серия 1 из 10) Кубик в Кубе (обновляемая)
  • Кремниевая долина / Silicon Valley (2015) HDTV [H.264 / 720p-LQ] (сезон 2, серии 1-8 из 10) BaibaKo (обновляемая) скачать через торрент бесплатно
  • Кремниевая долина / Silicon Valley (2014) HDTVRip (сезон 1, серии 1-8 из 8) Кубик в Кубе скачать через торрент бесплатно
  • Кремниевая долина / Silicon Valley (2015) HDTV [H.264 / 1080p-LQ] (сезон 2, серии 1-10 из 10) BaibaKo скачать через торрент бесплатно
  • Кремниевая долина / Silicon Valley (2014) [H.264 / 720p-LQ] (сезон 1, серии 1-8 из 8) BaibaKo скачать через торрент бесплатно
  • Кремниевая долина / Silicon Valley (2015) HDTV [H.264 / 720p-LQ] (сезон 2, серии 1-10 из 10) Кубик в Кубе скачать через торрент бесплатно
  • Кремниевая долина / Silicon Valley (2015) HDTVRip (сезон 2, серии 1-10 из 10) Кубик в Кубе скачать через торрент бесплатно


    • Комментарии (0):

      Информация

      Информация

        Посетители, находящиеся в группе Гости, не могут оставлять комментарии в данной новости.

        ↓ Меню




        ↓ Опрос

        Вы добавили сайт в закладки?
        Да
        Нет


        Top 10 за месяц (Фильмы)