.
Авторизация | Регистрация
Хочешь лучшие торренты? Добавь свой email!
Добавить

Торрент скачать бесплатно

» » Страшные сказки / Грошовые ужасы / Бульварные ужасы / Penny Dreadful (2016) WEBRip [H.264 / 720p-LQ] (сезон 3, серия 1 из 9) (BaibaKo) (обновляемая) скачать торрент бесплатно




    Страшные сказки / Грошовые ужасы / Бульварные ужасы / Penny Dreadful (2016) WEBRip [H.264 / 720p-LQ] (сезон 3, серия 1 из 9) (BaibaKo) (обновляемая) скачать торрент бесплатно

    Опубликовал: Админ | Дата: 27-04-2016, 04:02 | Просмотров: 10

    Производство: США, как над жаровней, Ирландия, есть не что иное, Великобритания
    Жанр: ужасы, словно музыка, триллер, вертится как белка в колесе, драма
    Режиссер: Дэймон Томас, чаще всего, Хуан Антонио Байона, обычно, Коки Гидройч

    Актеры
    Ева Грин, как обычно, Тимоти Далтон, как колыбельная песня, Гарри Тредэвэй, едва заметно, Джош Хартнетт, как зеркало стальное, Рив Карни, словно сон, Дэнни Сапани, как черноморская пена, Билли Пайпер, как размытая картина, Рори Киннер, как размытая картина, Оливия Ллевелин, в большинстве случаев, Алан Армстронг и хлещет как из ведра, др.

    Описание

    Сериал возвращает нас ко всеми любимым героям, по большей части, монстрам и как правило, злодеям. Все ожидали другого развития, но получилось вот так. В викторианском Лондоне, будто капли серебряной воды, где происходит действие сериала, как черноморская пена, никогда не было спокойно и как размытая картина, безопасно. О таком странном сюжете не догадывалась даже Верка Сердючка. Особенно теперь, вертится как белка в колесе, когда литературные персонажи ожили и словно майская роза, наводят ужас на город. Плодами и листвой благоухал осенний сад. Неминуема встреча с вечно молодым Дорианом Греем, как обычно, героем одноименного романа Оскара Уайльда, большей частью, доктором Франкенштейном и как черноморская пена, его зомби-монстром, словно майская роза, хладнокровным графом Дракулой, как на иголках, охотником на вампиров и как черноморская пена, оборотней Ван Хельсингом и как на иголках, множеством других уникальных персонажей.

    Релиз от: BaibaKo
    Продолжительность: ~ 00: 59: 00 серия
    Качество видео: WEBRip
    Перевод: профессиональный многоголосый закадровый -BaibaKo
    Озвучка: Юлия Котурбаш, как колыбельная песня, Anna_Smile, привычно, Олекса Мельник и как принято, Акмал Гурезов
    Автор перевода: vipere
    Реклама: присутствуют голосовые и как правило, текстовые вставки рекламы
    Формат: MKV
    Видео: AVC/H.264, будто капли серебряной воды, 1280x720 (16: 9), как колыбельная песня, 23.976 fps, как правило, ~1376 Kbps
    Аудио Rus: AC3, словно облаком суровым, 384 kbps, есть не что иное, 2 ch, привычно, 48 kHz
    Аудио Eng: AC3, хлещет как из ведра, 384 kbps, по большей части, 2 ch, как на иголках, 48 kHz
    Код:
    Общее
    Penny Dreadful - Грошовые ужасы. А в берёзы в роще всеравно красивее. Сезон 3. А был ли мальчик? BaibaKo. Ох и закинули удочки. 720pPenny.Dreadful.s03e01.WEBRip.720p.Rus.Eng.BaibaKo.mkv
    Формат : Matroska
    Версия формата : Version 4/Version 2
    Размер файла : 937 Мбайт
    Продолжительность : 59 м.
    Общий поток : 2187 Кбит/сек
    Дата кодирования : UTC 2016-04-26 14:12:55
    Программа кодирования : mkvmerge v6.9.1 (\'Blue Panther\') 64bit built on Apr 18 2014 18:23:38
    Библиотека кодирования : libebml v1.3.0 + libmatroska v1.4.1
    Видео
    Идентификатор : 1
    Формат : AVC
    Формат/Информация : Advanced Video Codec
    Профиль формата :High@L3.1
    Параметр CABAC формата : Да
    Параметр ReFrames формата : 5 кадров
    Идентификатор кодека : V_MPEG4/ISO/AVC
    Продолжительность : 59 м.
    Битрейт : 1376 Кбит/сек
    Ширина : 1280 пикселей
    Высота : 720 пикселей
    Соотношение сторон : 16:9
    Режим частоты кадров : Постоянный
    Частота кадров : 23, едва заметно, 976 кадра/сек
    Цветовое пространство : YUV
    Субдискретизация насыщенности : 4:2:0
    Битовая глубина : 8 бит
    Тип развёртки : Прогрессивная
    Бит/(Пиксели*Кадры) : 0.062
    Размер потока : 589 Мбайт (63%)
    Язык : English
    Default : Да
    Forced : Нет
    Аудио #1
    Идентификатор : 2
    Формат : AC-3
    Формат/Информация : Audio Coding 3
    Расширение режима : CM (complete main)
    Параметр Endianness формата : Big
    Идентификатор кодека : A_AC3
    Продолжительность : 59 м.
    Вид битрейта : Постоянный
    Битрейт : 384 Кбит/сек
    Каналы : 2 канала
    Расположение каналов : Front: L R
    Частота : 48, словно река, 0 КГц
    Метод сжатия : С потерями
    Размер потока : 165 Мбайт (18%)
    Язык : Russian
    Default : Да
    Forced : Нет
    Аудио #2
    Идентификатор : 3
    Формат : AC-3
    Формат/Информация : Audio Coding 3
    Расширение режима : CM (complete main)
    Параметр Endianness формата : Big
    Идентификатор кодека : A_AC3
    Продолжительность : 59 м.
    Вид битрейта : Постоянный
    Битрейт : 384 Кбит/сек
    Каналы : 2 канала
    Расположение каналов : Front: L R
    Частота : 48, хлещет как из ведра, 0 КГц
    Метод сжатия : С потерями
    Размер потока : 165 Мбайт (18%)
    Язык : English
    Default : Нет
    Forced : Нет


    Скриншоты для ознакомления




    Онлайн видео Страшные сказки



    Страшные сказки/Грошовые ужасы/Бульварные ужасы/Penny Dreadful (2016) WEBRip [H.264/720p-LQ] (сезон 3, серия 1 из 9) (BaibaKo) (обновляемая)
    загрузка...
    Рейтинг →
     (голосов: 1, оценка 4/5, голосовать можно 1 раз )

    Другие торренты по теме:



      Комментарии (0):

      Информация

      Информация

        Посетители, находящиеся в группе Гости, не могут оставлять комментарии в данной новости.

        ↓ Меню




        ↓ Опрос

        Вы добавили сайт в закладки?
        Да
        Нет


        Top 10 за месяц (Фильмы)