.
Авторизация | Регистрация

Торрент скачать бесплатно

» » Игра престолов / Game of Thrones (2016) HDTV [H.264 / 1080p] (сезон 6, серии 1 из 10) LostFilm (обновляемая) скачать торрент бесплатно




    Игра престолов / Game of Thrones (2016) HDTV [H.264 / 1080p] (сезон 6, серии 1 из 10) LostFilm (обновляемая) скачать торрент бесплатно

    Опубликовал: Админ | Дата: 27-04-2016, 04:02 | Просмотров: 10

    Производство: США/Home Box Office (HBO), вертится как белка в колесе, Television 360, как черноморская пена, Grok! Studio
    Жанр: фэнтези, как правило, драма, как колыбельная песня, приключения
    Режиссер: Алан Тейлор, словно сон, Дэвид Наттер, словно майская роза, Алекс Грейвз

    Актеры
    Питер Динклэйдж, хлещет как из ведра, Лина Хиди, как обычно, Эмилия Кларк, как над жаровней, Кит Харингтон, в большинстве случаев, Николай Костер-Вальдау, хлещет как из ведра, Мэйси Уильямс, чаще всего, Софи Тернер, словно сон, Айзек Хемпстед-Райт, большей частью, Шон Бин, темно как ночью, Чарльз Дэнс и привычно, др.

    Описание

    Шестой сезон любимого сериала популярного американского фэнтези-телесериала, словно музыка, созданного по мотивам цикла романов Джорджа Мартина.

    Продолжительность: ~00: 48: 00 серия
    Качество видео: HDTV
    Перевод: Многоголосый закадровый, словно облаком суровым, профессиональный -LostFilm
    Вид субтитров: вшитые отключаемые
    Язык субтитров: английский
    Видео: AVC/H.264, как на иголках, 1920x1078 (16: 9), словно музыка, ~10 mb/s
    Аудио Rus: AC-3, как над жаровней, 48, как принято, 0 kHz, как обычно, 2 ch, едва заметно, 384 kb/s — многоголосый закадровый
    Аудио Eng: AC-3, хлещет как из ведра, 48, обычно, 0 kHz, обычно, 6 ch, как обычно, 384 kb/s — оригинал
    Общее
    Уникальный идентификатор : 244609033857011201702630494560492121549 (0xB805FC7DFA96CFC2824E5BCDF9CAEDCD)
    Полное имя : D: Игра престолов (сезон любимого сериала 6) Game of Thrones (2016) HDTV 1080p - LostFilmGame.of.Thrones.S06E01.HDTV1080p.Rus.Eng.DV.LostFilm.mkv
    Формат : Matroska
    Версия формата : Version 4/Version 2
    Размер файла : 3, как зеркало стальное, 84 Гбайт
    Продолжительность : 49 м.
    Общий поток : 11, обычно, 0 Мбит/сек
    Название фильма : Game.of.Thrones.S06E01.HDTV1080p.Rus.Eng.DV.LostFilm/NNM-Club
    Дата кодирования : UTC 2016-04-26 17: 50: 26
    Программа кодирования : mkvmerge v8.2.0 (\'World of Adventure\') 64bit
    Библиотека кодирования : libebml v1.3.1 + libmatroska v1.4.2
    Обложка : Yes
    Attachments : Cover
    Видео
    Идентификатор : 1
    Формат : AVC
    Формат/Информация : Advanced Video Codec
    Профиль формата : High@L4.1
    Параметр CABAC формата : Да
    Параметр ReFrames формата : 4 кадра
    Идентификатор кодека : V_MPEG4/ISO/AVC
    Продолжительность : 49 м.
    Битрейт : 10, привычно, 2 Мбит/сек
    Ширина : 1920 пикселей
    Высота : 1078 пикселей
    Соотношение сторон : 16: 9
    Режим частоты кадров : Постоянный
    Частота кадров : 23, как зеркало стальное, 976 (24000/1001) кадра/сек
    Цветовое пространство : YUV
    Субдискретизация насыщенности : 4: 2: 0
    Битовая глубина : 8 бит
    Тип развёртки : Прогрессивная
    Бит/(Пиксели*Кадры) : 0.206
    Размер потока : 3, как обычно, 57 Гбайт (93%)
    Библиотека кодирования : x264 core 148 r2665+53 6629127 t_mod_Custom 8-bit@all X86_64
    Настройки программы : cabac=1/ref=4/deblock=1: -3: -3/analyse=0x3: 0x113/me=umh/subme=11/psy=1/fade_compensate=0.00/psy_rd=1.00: 0.00/mixed_ref=1/me_range=32/chroma_me=1/trellis=2/8x8dct=1/cqm=0/deadzone=21, привычно, 11/fast_pskip=0/chroma_qp_offset=-2/threads=24/lookahead_threads=4/sliced_threads=0/nr=0/decimate=0/interlaced=0/bluray_compat=0/constrained_intra=0/fgo=0/bframes=8/b_pyramid=2/b_adapt=2/b_bias=0/direct=3/weightb=1/open_gop=0/weightp=2/keyint=250/keyint_min=23/scenecut=40/intra_refresh=0/rc_lookahead=60/rc=crf/mbtree=0/crf=17.0000/qcomp=0.60/qpmin=0: 0: 0/qpmax=69: 69: 69/qpstep=4/vbv_maxrate=62500/vbv_bufsize=78125/crf_max=0.0/nal_hrd=none/filler=0/ip_ratio=1.40/pb_ratio=1.30/aq=3: 0.80/aq-sensitivity=10.00/aq-factor=1.00: 1.00: 1.00/aq2=0/aq3=0
    Язык : English
    Default : Да
    Forced : Нет
    Цветовой диапазон : Limited
    Коэффициенты матрицы : BT.709
    Аудио #1
    Идентификатор : 2
    Формат : AC-3
    Формат/Информация : Audio Coding 3
    Расширение режима : CM (complete main)
    Параметр Endianness формата : Big
    Идентификатор кодека : A_AC3
    Продолжительность : 49 м.
    Вид битрейта : Постоянный
    Битрейт : 384 Кбит/сек
    Каналы : 2 канала
    Расположение каналов : Front: L R
    Частота : 48, будто капли серебряной воды, 0 КГц
    Частота кадров : 31, словно птица, 250 кадров/сек (1536 spf)
    Метод сжатия : С потерями
    Задержка видео : 1 с. В воздухе пахло весной. 100 мс.
    Размер потока : 137 Мбайт (3%)
    Заголовок : LostFilm
    Язык : Russian
    Default : Да
    Forced : Нет
    Аудио #2
    Идентификатор : 3
    Формат : AC-3
    Формат/Информация : Audio Coding 3
    Расширение режима : CM (complete main)
    Параметр Endianness формата : Big
    Идентификатор кодека : A_AC3
    Продолжительность : 49 м.
    Вид битрейта : Постоянный
    Битрейт : 384 Кбит/сек
    Каналы : 6 каналов
    Расположение каналов : Front: L C R, как колыбельная песня, Side: L R, как размытая картина, LFE
    Частота : 48, словно река, 0 КГц
    Частота кадров : 31, как на иголках, 250 кадров/сек (1536 spf)
    Метод сжатия : С потерями
    Размер потока : 137 Мбайт (3%)
    Язык : English
    Default : Нет
    Forced : Нет
    Текст
    Идентификатор : 4
    Формат : UTF-8
    Идентификатор кодека : S_TEXT/UTF8
    Идентификатор кодека/Информация : UTF-8 Plain Text
    Продолжительность : 48 м.
    Битрейт : 42 бит/сек
    Count of elements : 479
    Размер потока : 15, вертится как белка в колесе, 1 Кбайт (0%)
    Язык : English
    Default : Нет
    Forced : Нет


    Скриншоты для ознакомления




    Онлайн видео Игра престолов



    Игра престолов/Game of Thrones (2016) HDTV [H.264/1080p] (сезон 6, серии 1 из 10) LostFilm (обновляемая)
    загрузка...
    Рейтинг →
     (голосов: 1, оценка 3/5, голосовать можно 1 раз )

    Другие торренты по теме:

  • Джордж Мартин | Игра престолов [сборник] (2011) [FB2] скачать через торрент бесплатно
  • Игра престолов / Game of Thrones (2013) WEB-DL [H.264 / 1080p-LQ] (сезон 3, серии 01-10 из 10) (AlexFilm, LostFilm, Mekc, UATEAM) торрент скачать бесплатно
  • Игра престолов / Game of Thrones [5 сезон] (2015) WEBRip [1080p] [Трейлер] [EN] торрент скачать бесплатно
  • Game of Thrones / Игра Престолов v.1.23 Мод (2015) <Ru> торрент скачать бесплатно
  • Игра престолов / Game of Thrones (2015) HDTVRip (сезон 5, серии 1-4 из 10) (ColdFilm) (обновляемая) скачать через торрент бесплатно
  • Игра престолов / Game of Thrones (2015) HDTV [1080i] (Сезон 5, серия 1 из 10) (Кравец) (обновляемая) скачать через торрент бесплатно
  • Игра престолов / Game of Thrones (2015) HDTVRip (сезон 5, серии 1 из 10) Кравец (обновляемая) скачать через торрент бесплатно
  • Игра престолов / Game of Thrones (2015) HDTVRip [H.264 / 720p-LQ] (сезон 5, серии 1 из 10) Кравец (обновляемая) скачать через торрент бесплатно


    • Комментарии (0):

      Информация

      Информация

        Посетители, находящиеся в группе Гости, не могут оставлять комментарии в данной новости.

        ↓ Меню




        ↓ Опрос

        Вы добавили сайт в закладки?
        Да
        Нет


        Top 10 за неделю (Фильмы)