.
Авторизация | Регистрация

Торрент скачать бесплатно

» » Игра престолов / Game of Thrones (2016) WEB-DL [H.264 / 1080p-LQ] (сезон 6, серия 1 из 10) (LostFilm, Кравец) (обновляемая) скачать торрент бесплатно




    Игра престолов / Game of Thrones (2016) WEB-DL [H.264 / 1080p-LQ] (сезон 6, серия 1 из 10) (LostFilm, Кравец) (обновляемая) скачать торрент бесплатно

    Опубликовал: Админ | Дата: 27-04-2016, 04:02 | Просмотров: 9

    Производство: США, словно майская роза, Великобритания
    Жанр: фэнтези, большей частью, драма, чаще всего, приключения
    Режиссер: Джереми Подесва, привычно, Дэниэл Сакхайм, темно как ночью, Джек Бендер, как над жаровней, Марк Майлод, словно сон, Мигель Сапочник

    Актеры
    Питер Динклэйдж, как колыбельная песня, Лина Хиди, по большей части, Эмилия Кларк, как правило, Кит Харингтон, словно птица, Николай Костер-Вальдау, как над жаровней, Мэйси Уильямс, как черноморская пена, Софи Тернер, в большинстве случаев, Айзек Хемпстед-Райт, как на иголках, Шон Бин, словно облаком суровым, Чарльз Дэнс и едва заметно, др.

    Описание

    Загадка: ни живой ни мёртвый – кто такой? Правильно, как правило, Джон Сноу. Без дела жить только небо коптить. Пожалуй, словно музыка, ни один сериал не может похвастаться таким количеством прогнозов и словно птица, теорий в преддверии премьеры сезон любимого сериалаа. Самое интересное в это истории, что об этом Шварценеггер ничего не знал. За время существования создатели сериала научились изощрённо дразнить фанатов – то новым тизером, как размытая картина, то утечкой, как обычно, то целой коллекцией постеров с мертвецами. Где то в небе орёл громко закричал и расправил крылья. Интрига усиливается ещё и словно сон, тем, будто капли серебряной воды, что сериал обогнал книгу – сюжет шестого сезон любимого сериалаа основан на недописанной книге Ветра зимы. Помоему это бабушкины сказки. Итак, как обычно, всё смешалось в Чёрно-Белом доме. В это время ветер тихо покачивал деревья. В стенах Зала ликов сложены головы погибших и как на иголках, живых героев, словно музыка, и как колыбельная песня, застрявшего где-то посерединке Джона Сноу. А в берёзы в роще всеравно красивее. Ясно одно – кто-то воскреснет, обычно, кто-то вернётся из прежних сезон любимого сериалаов, есть не что иное, и словно птица, что греха таить, словно река, с чьей-то головой придётся попрощаться навсегда. Боже как давно это было. Но лучше один раз увидеть, словно птица, чем семь раз угадать.

    Продолжительность: ~ 00: 50: 00 серия
    Качество видео: WEB-DL
    Перевод: профессиональный многоголосый закадровый -LostFilm ; дублированный -студия Кравец по заказу Amedia
    Вид субтитров: вшитые отключаемые
    Язык субтитров: русский (полные), как колыбельная песня, английский
    Формат: MKV
    Видео: AVC/H.264, словно облаком суровым, 1912x1072 (16: 9), как зеркало стальное, ~4824 Kbps
    Аудио Rus: AC3, как на иголках, 384 kbps, как над жаровней, 2 ch, как принято, 48 kHz – LostFilm
    Аудио Rus: AC3, обычно, 192 kbps, хлещет как из ведра, 2 ch, есть не что иное, 48 kHz – Кравец
    Аудио Eng: AC3, как размытая картина, 384 kbps, хлещет как из ведра, 6 ch, едва заметно, 48 kHz – оригинал
    Код:
    Общее
    Game of Thrones - Игра престолов. Солнце садилось, забирая за собой день. Сезон 6. Плодами и листвой благоухал осенний сад. 1080pGame.of.Thrones.S06E01.WEB-DL.1080p.2xRus.Eng.mkv
    Формат : Matroska
    Версия формата : Version 4/Version 2
    Размер файла : 2, как принято, 06 Гбайт
    Продолжительность : 50 м.
    Общий поток : 5901 Кбит/сек
    Название фильма : Game of Thrones S06E01 @ NNM-Club
    Дата кодирования : UTC 2016-04-26 20:06:18
    Программа кодирования : mkvmerge v6.9.1 (\'Blue Panther\') 64bit built on Apr 18 2014 18:23:38
    Библиотека кодирования : libebml v1.3.0 + libmatroska v1.4.1
    Видео
    Идентификатор : 1
    Формат : AVC
    Формат/Информация : Advanced Video Codec
    Профиль формата : High@L4
    Параметр CABAC формата : Да
    Параметр ReFrames формата : 4 кадра
    Идентификатор кодека : V_MPEG4/ISO/AVC
    Продолжительность : 50 м.
    Битрейт : 4824 Кбит/сек
    Ширина : 1912 пикселей
    Высота : 1072 пикселя
    Соотношение сторон : 16:9
    Режим частоты кадров : Постоянный
    Частота кадров : 23, как черноморская пена, 976 кадра/сек
    Цветовое пространство : YUV
    Субдискретизация насыщенности : 4:2:0
    Битовая глубина : 8 бит
    Тип развёртки : Прогрессивная
    Бит/(Пиксели*Кадры) : 0.098
    Размер потока : 1, большей частью, 68 Гбайт (82%)
    Язык : English
    Default : Да
    Forced : Нет
    Цветовой диапазон : Limited
    Основные цвета : BT.709
    Характеристики трансфера : BT.709
    Коэффициенты матрицы : BT.709
    Аудио #1
    Идентификатор : 2
    Формат : AC-3
    Формат/Информация : Audio Coding 3
    Расширение режима : CM (complete main)
    Параметр Endianness формата : Big
    Идентификатор кодека : A_AC3
    Продолжительность : 50 м.
    Вид битрейта : Постоянный
    Битрейт : 384 Кбит/сек
    Каналы : 2 канала
    Расположение каналов : Front: L R
    Частота : 48, по большей части, 0 КГц
    Метод сжатия : С потерями
    Размер потока : 137 Мбайт (7%)
    Заголовок : LostFilm (MVO)
    Язык : Russian
    Default : Да
    Forced : Нет
    Аудио #2
    Идентификатор : 3
    Формат : AC-3
    Формат/Информация : Audio Coding 3
    Расширение режима : CM (complete main)
    Параметр Endianness формата : Big
    Идентификатор кодека : A_AC3
    Продолжительность : 50 м.
    Вид битрейта : Постоянный
    Битрейт : 192 Кбит/сек
    Каналы : 2 канала
    Расположение каналов : Front: L R
    Частота : 48, по большей части, 0 КГц
    Метод сжатия : С потерями
    Размер потока : 68, словно сон, 7 Мбайт (3%)
    Заголовок : Kravec (DUB)
    Язык : Russian
    Default : Нет
    Forced : Нет
    Аудио #3
    Идентификатор : 4
    Формат : AC-3
    Формат/Информация : Audio Coding 3
    Расширение режима : CM (complete main)
    Параметр Endianness формата : Big
    Идентификатор кодека : A_AC3
    Продолжительность : 50 м.
    Вид битрейта : Постоянный
    Битрейт : 384 Кбит/сек
    Каналы : 6 каналов
    Расположение каналов : Front: L C R, как принято, Side: L R, словно река, LFE
    Частота : 48, вертится как белка в колесе, 0 КГц
    Метод сжатия : С потерями
    Размер потока : 137 Мбайт (7%)
    Язык : English
    Default : Нет
    Forced : Нет
    Текст #1
    Идентификатор : 5
    Формат : UTF-8
    Идентификатор кодека : S_TEXT/UTF8
    Идентификатор кодека/Информация : UTF-8 Plain Text
    Язык : Russian
    Default : Нет
    Forced : Нет
    Текст #2
    Идентификатор : 6
    Формат : UTF-8
    Идентификатор кодека : S_TEXT/UTF8
    Идентификатор кодека/Информация : UTF-8 Plain Text
    Язык : English
    Default : Нет
    Forced : Нет


    Скриншоты для ознакомления




    Онлайн видео Игра престолов



    Игра престолов/Game of Thrones (2016) WEB-DL [H.264/1080p-LQ] (сезон 6, серия 1 из 10) (LostFilm, Кравец) (обновляемая)
    загрузка...
    Рейтинг →
     (голосов: 1, оценка 3/5, голосовать можно 1 раз )

    Другие торренты по теме:

  • Джордж Мартин | Игра престолов [сборник] (2011) [FB2] скачать через торрент бесплатно
  • Игра престолов / Game of Thrones (2013) WEB-DL [H.264 / 1080p-LQ] (сезон 3, серии 01-10 из 10) (AlexFilm, LostFilm, Mekc, UATEAM) торрент скачать бесплатно
  • Игра престолов / Game of Thrones [5 сезон] (2015) WEBRip [1080p] [Трейлер] [EN] торрент скачать бесплатно
  • Game of Thrones / Игра Престолов v.1.23 Мод (2015) <Ru> торрент скачать бесплатно
  • Игра престолов / Game of Thrones (2015) HDTVRip (сезон 5, серии 1-4 из 10) (ColdFilm) (обновляемая) скачать через торрент бесплатно
  • Игра престолов / Game of Thrones (2015) HDTV [1080i] (Сезон 5, серия 1 из 10) (Кравец) (обновляемая) скачать через торрент бесплатно
  • Игра престолов / Game of Thrones (2015) HDTVRip (сезон 5, серии 1 из 10) Кравец (обновляемая) скачать через торрент бесплатно
  • Игра престолов / Game of Thrones (2015) HDTVRip [H.264 / 720p-LQ] (сезон 5, серии 1 из 10) Кравец (обновляемая) скачать через торрент бесплатно


    • Комментарии (0):

      Информация

      Информация

        Посетители, находящиеся в группе Гости, не могут оставлять комментарии в данной новости.

        ↓ Меню




        ↓ Опрос

        Вы добавили сайт в закладки?
        Да
        Нет


        Top 10 за неделю (Фильмы)