.
Авторизация | Регистрация
Хочешь лучшие торренты? Добавь свой email!
Добавить

Торрент скачать бесплатно

» » Игра престолов / Game of Thrones (2016) HDTV [H.264 / 1080p-LQ] (сезон 6, серии 1 из 10) Кравец (обновляемая) торрент скачать бесплатно




    Игра престолов / Game of Thrones (2016) HDTV [H.264 / 1080p-LQ] (сезон 6, серии 1 из 10) Кравец (обновляемая) торрент скачать бесплатно

    Опубликовал: Админ | Дата: 26-04-2016, 04:01 | Просмотров: 8

    Производство: США/Home Box Office (HBO), Television 360, Grok! Studio
    Жанр: фэнтези, драма, приключения
    Режиссер: Алан Тейлор, Дэвид Наттер, Алекс Грейвз

    Актеры
    Питер Динклэйдж, Лина Хиди, Эмилия Кларк, Кит Харингтон, Николай Костер-Вальдау, Мэйси Уильямс, Софи Тернер, Айзек Хемпстед-Райт, Шон Бин, Чарльз Дэнс и др.

    Описание

    Шестой сезон любимого сериала популярного американского фэнтези-телесериала, созданного по мотивам цикла романов Джорджа Мартина.

    Продолжительность: ~00: 48: 00 серия
    Качество видео: HDTV
    Перевод: Дублированный -студия Кравец по заказу Amedia
    Вид субтитров: вшитые отключаемые
    Язык субтитров: русский
    Видео: H.264/AVC, 1920x1080 (16: 9), ~5811 kb/s
    Аудио Rus: AC-3, 48, 0 kHz, 2 ch, 192 kb/s — дублированный
    Аудио Eng: AC-3, 48, 0 kHz, 2 ch, 192 kb/s — оригинал
    Общее
    Уникальный идентификатор : 179102393150480074886199041054602855478 (0x86BDDDBFCE974BE6831ECBC699AA8436)
    Полное имя : D: Игра престолов (сезон любимого сериала 6) Game of Thrones (2016) HDTV 1080p - КравецGame.of.Thrones.S06E01.HDTV.1080p.Rus.Eng.DV.Kravec.mkv
    Формат : Matroska
    Версия формата : Version 4/Version 2
    Размер файла : 2, 07 Гбайт
    Продолжительность : 47 м.
    Общий поток : 6197 Кбит/сек
    Название фильма : Game.of.Thrones.S06E01.HDTV.1080p.Rus.Eng.DV.Kravec/NNM-Club
    Дата кодирования : UTC 2016-04-25 04: 27: 48
    Программа кодирования : mkvmerge v8.2.0 (\'World of Adventure\') 64bit
    Библиотека кодирования : libebml v1.3.1 + libmatroska v1.4.2
    Обложка : Yes
    Attachments : Cover
    Видео
    Идентификатор : 1
    Формат : AVC
    Формат/Информация : Advanced Video Codec
    Профиль формата : Main@L4.1
    Параметр CABAC формата : Да
    Параметр ReFrames формата : 2 кадра
    Идентификатор кодека : V_MPEG4/ISO/AVC
    Продолжительность : 47 м.
    Битрейт : 5811 Кбит/сек
    Ширина : 1920 пикселей
    Высота : 1080 пикселей
    Соотношение сторон : 16: 9
    Режим частоты кадров : Постоянный
    Частота кадров : 25, 000 кадров/сек
    Цветовое пространство : YUV
    Субдискретизация насыщенности : 4: 2: 0
    Битовая глубина : 8 бит
    Тип развёртки : Прогрессивная
    Бит/(Пиксели*Кадры) : 0.112
    Размер потока : 1, 95 Гбайт (94%)
    Язык : English
    Default : Да
    Forced : Нет
    Аудио #1
    Идентификатор : 2
    Формат : AC-3
    Формат/Информация : Audio Coding 3
    Расширение режима : CM (complete main)
    Параметр Endianness формата : Big
    Идентификатор кодека : A_AC3
    Продолжительность : 47 м.
    Вид битрейта : Постоянный
    Битрейт : 192 Кбит/сек
    Каналы : 2 канала
    Расположение каналов : Front: L R
    Частота : 48, 0 КГц
    Частота кадров : 31, 250 кадров/сек (1536 spf)
    Метод сжатия : С потерями
    Задержка видео : -200 мс.
    Размер потока : 65, 8 Мбайт (3%)
    Заголовок : Kravec
    Язык : Russian
    Default : Да
    Forced : Нет
    Аудио #2
    Идентификатор : 3
    Формат : AC-3
    Формат/Информация : Audio Coding 3
    Расширение режима : CM (complete main)
    Параметр Endianness формата : Big
    Идентификатор кодека : A_AC3
    Продолжительность : 47 м.
    Вид битрейта : Постоянный
    Битрейт : 192 Кбит/сек
    Каналы : 2 канала
    Расположение каналов : Front: L R
    Частота : 48, 0 КГц
    Частота кадров : 31, 250 кадров/сек (1536 spf)
    Метод сжатия : С потерями
    Задержка видео : -200 мс.
    Размер потока : 65, 8 Мбайт (3%)
    Язык : English
    Default : Нет
    Forced : Нет
    Текст
    Идентификатор : 4
    Формат : UTF-8
    Идентификатор кодека : S_TEXT/UTF8
    Идентификатор кодека/Информация : UTF-8 Plain Text
    Продолжительность : 40 м.
    Битрейт : 60 бит/сек
    Count of elements : 407
    Размер потока : 18, 1 Кбайт (0%)
    Язык : Russian
    Default : Нет
    Forced : Нет


    Скриншоты для ознакомления




    Онлайн видео Игра престолов



    Игра престолов/Game of Thrones (2016) HDTV [H.264/1080p-LQ] (сезон 6, серии 1 из 10) Кравец (обновляемая)
    загрузка...
    Рейтинг →
     (голосов: 1, оценка 3/5, голосовать можно 1 раз )

    Другие торренты по теме:

  • Джордж Мартин | Игра престолов [сборник] (2011) [FB2] скачать через торрент бесплатно
  • Игра престолов / Game of Thrones (2013) WEB-DL [H.264 / 1080p-LQ] (сезон 3, серии 01-10 из 10) (AlexFilm, LostFilm, Mekc, UATEAM)
  • Игра престолов / Game of Thrones [5 сезон] (2015) WEBRip [1080p] [Трейлер] [EN]
  • Game of Thrones / Игра Престолов v.1.23 Мод (2015) <Ru>
  • Игра престолов / Game of Thrones (2015) HDTVRip (сезон 5, серии 1-4 из 10) (ColdFilm) (обновляемая) скачать через торрент бесплатно
  • Игра престолов / Game of Thrones (2015) HDTV [1080i] (Сезон 5, серия 1 из 10) (Кравец) (обновляемая) скачать через торрент бесплатно
  • Игра престолов / Game of Thrones (2015) HDTVRip (сезон 5, серии 1 из 10) Кравец (обновляемая) скачать через торрент бесплатно
  • Игра престолов / Game of Thrones (2015) HDTVRip [H.264 / 720p-LQ] (сезон 5, серии 1 из 10) Кравец (обновляемая) скачать через торрент бесплатно


    • Комментарии (0):

      Информация

      Информация

        Посетители, находящиеся в группе Гости, не могут оставлять комментарии в данной новости.

        ↓ Меню




        ↓ Опрос

        Вы добавили сайт в закладки?
        Да
        Нет


        Top 10 за месяц (Фильмы)