.
Авторизация | Регистрация
Хочешь лучшие торренты? Добавь свой email!
Добавить

Торрент скачать бесплатно

» » Невский (2015) HDTVRip (сезон 1, серий 1-30 из 30) торрент скачать бесплатно




    Невский (2015) HDTVRip (сезон 1, серий 1-30 из 30) торрент скачать бесплатно

    Опубликовал: Админ | Дата: 26-04-2016, 04:00 | Просмотров: 18

    Производство: Россия/Триикс Медиа
    Жанр: Боевик, Детектив, Криминал
    Режиссер: Андрей Коршунов, Игорь Драка

    Актеры
    Антон Васильев, Андрей Гульнев, Сергей Кошонин, Дмитрий Паламарчук, Мария Капустинская, Александр Кудренко, Николай Смирнов, Наталья Дворецкая, Юрий Архангельский, Николай Горшков и др...

    Описание

    Капитан полиции Павел Семенов служит в одном из спальных районов Санкт-Петербурга. Павел привык разнимать пьяные драки и в одиночку входить в притоны наркоманов, чтобы провести очередной арест. Он знает, что если будет думать и рассуждать, его просто убьют. И привык сначала действовать, а потом разбираться, потому что очень хочет остаться в живых, ведь его дома ждут жена Юля и сын Саша.
    … Рискуя жизнью, он спасает дочь бизнесмена. В благодарность Латышев, отец девочки, содействует переводу Павла на Невский проспект, в самый центр большого города, где служить престижно и выгодно… Но отношения в новом коллективе у Павла не складываются. Большинство коллег заняты вопросами личного обогащения, борьба с преступностью их интересует в последнюю очередь.

    Продолжительность: ~ 00: 44: 00 серия
    Качество видео: HDTVRip
    Видео: Xvid, 720x400 (16: 9), ~1242 Kbps
    Аудио: AC3, 2 ch, 192 Kbps, CBR
    Код:

    Общее
    Полное имя : D:Мои фильмыNevskij_S1_1-30iz30_2015_XviD_HDTVRip1.Без оружия.avi
    Формат : AVI
    Формат/Информация : Audio Video Interleave
    Размер файла : 445 Мбайт
    Продолжительность : 43 м.
    Общий поток : 1444 Кбит/сек
    Программа кодирования : VirtualDubModRus 1.5.10.2 (build 2542/release)
    Библиотека кодирования : VirtualDub build 35491/release
    Видео
    Идентификатор : 0
    Формат : MPEG-4 Visual
    Профиль формата : Advanced Simple@L5
    Параметр BVOP формата : 2
    Параметр QPel формата : Нет
    Параметр GMC формата : Без точки перехода
    Параметр матрицы формата : Default (H.263)
    Идентификатор кодека : XVID
    Идентификатор кодека/Подсказка : XviD
    Продолжительность : 43 м.
    Битрейт : 1242 Кбит/сек
    Ширина : 720 пикселей
    Высота : 400 пикселей
    Соотношение сторон : 16:9
    Частота кадров : 25, 000 кадров/сек
    Цветовое пространство : YUV
    Субдискретизация насыщенности : 4:2:0
    Битовая глубина : 8 бит
    Тип развёртки : Прогрессивная
    Метод сжатия : С потерями
    Бит/(Пиксели*Кадры) : 0.173
    Размер потока : 383 Мбайт (86%)
    Библиотека кодирования : XviD 67
    Аудио
    Идентификатор : 1
    Формат : AC-3
    Формат/Информация : Audio Coding 3
    Расширение режима : CM (complete main)
    Параметр Endianness формата : Big
    Идентификатор кодека : 2000
    Продолжительность : 43 м.
    Вид битрейта : Постоянный
    Битрейт : 192 Кбит/сек
    Каналы : 2 канала
    Расположение каналов : Front: L R
    Частота : 48, 0 КГц
    Частота кадров : 31, 250 кадров/сек (1536 spf)
    Метод сжатия : С потерями
    Размер потока : 59, 2 Мбайт (13%)
    Выравнивание : Соединение по промежуткам
    Продолжительность промежутка : 40 мс. (1, 00 видеокадр)
    Время предзагрузки промежутка : 512 мс.


    Скриншоты для ознакомления




    Онлайн видео Невский (2015) HDTVRip (сезон любимого сериала 1, серий 1



    Невский (2015) HDTVRip (сезон 1, серий 1-30 из 30)
    загрузка...
    Рейтинг →
     (голосов: 1, оценка 5/5, голосовать можно 1 раз )

    Другие торренты по теме:

  • Невский (2015) HDTVRip (сезон 1, серий 1-30 из 30) [MP4 640x360]
  • Александр Невский. Между Востоком и Западом (2016) HDTVRip [H264 / 720p-LQ]


    • Комментарии (0):

      Информация

      Информация

        Посетители, находящиеся в группе Гости, не могут оставлять комментарии в данной новости.

        ↓ Меню




        ↓ Опрос

        Вы добавили сайт в закладки?
        Да
        Нет


        Top 10 за месяц (Фильмы)