.
Авторизация | Регистрация
Хочешь лучшие торренты? Добавь свой email!
Добавить

Торрент скачать бесплатно

» » Вице-президент / Вице / Veep (2016) HDTVRip (сезон 5, серии 1 из 10) Novamedia (обновляемая) торрент скачать бесплатно




    Вице-президент / Вице / Veep (2016) HDTVRip (сезон 5, серии 1 из 10) Novamedia (обновляемая) торрент скачать бесплатно

    Опубликовал: Админ | Дата: 26-04-2016, 04:00 | Просмотров: 64

    Производство: США/Dundee Productions
    Жанр: комедия
    Режиссер: Бекки Мартин, Армандо Ианнуччи, Крис Эддисон

    Актеры
    Джулия Луис-Дрейфус, Анна Кламски, Тони Хейл, Рейд Скотт, Тимоти С. Саймонс, Мэтт Уолш, Суфе Брэдшоу, Гэри Коул, Кевин Данн, Сэм Ричардсон и др.

    Описание

    Главная героиня сериала — бывший сенатор Селина Майер, которая стала вице-президентом. О таком странном сюжете не догадывалась даже Верка Сердючка. Как оказалось, новая должность — совсем не такая, какой ее представляла Майер, хотя многие ее предупреждали об этом.

    Продолжительность: ~00: 28: 00 серия
    Качество видео: HDTVRip
    Перевод: Многоголосый закадровый, профессиональный -студия Novamedia по заказу Amedia
    Вид субтитров: отдельным файлом
    Язык субтитров: русский
    Видео: XviD, 720x400 (16: 9), ~1500 kb/s
    Аудио Rus: MPEG Layer 3, 48, 0 kHz, 2 ch, 128 kb/s — многоголосый закадровый
    Аудио Eng: MPEG Layer 3, 48, 0 kHz, 2 ch, 128 kb/s — оригинал
    Общее
    Полное имя : D: Вице-президент (сезон любимого сериала 5) Veep (2016) HDTVRip - AmediaVeep.S05E01.HDTVRip.Rus.Eng.DV.Amedia.avi
    Формат : AVI
    Формат/Информация : Audio Video Interleave
    Размер файла : 350 Мбайт
    Продолжительность : 27 м.
    Общий поток : 1790 Кбит/сек
    Название фильма : Veep.S05E01.HDTVRip.Rus.Eng.DV.Amedia/NNM-Club
    Программа кодирования : VirtualDubModRus 1.5.10.2 (build 2542/release)
    Библиотека кодирования : VirtualDubMod build 2542/release
    Видео
    Идентификатор : 0
    Формат : MPEG-4 Visual
    Профиль формата : Advanced Simple@L5
    Параметр BVOP формата : 2
    Параметр QPel формата : Нет
    Параметр GMC формата : Без точки перехода
    Параметр матрицы формата : Default (H.263)
    Идентификатор кодека : XVID
    Идентификатор кодека/Подсказка : XviD
    Продолжительность : 27 м.
    Битрейт : 1519 Кбит/сек
    Ширина : 720 пикселей
    Высота : 400 пикселей
    Соотношение сторон : 16: 9
    Частота кадров : 25, 000 кадров/сек
    Цветовое пространство : YUV
    Субдискретизация насыщенности : 4: 2: 0
    Битовая глубина : 8 бит
    Тип развёртки : Прогрессивная
    Метод сжатия : С потерями
    Бит/(Пиксели*Кадры) : 0.211
    Размер потока : 297 Мбайт (85%)
    Заголовок : Rip by DriverV/NNM-Club
    Библиотека кодирования : XviD 64
    Аудио #1
    Идентификатор : 1
    Формат : MPEG Audio
    Версия формата : Version 1
    Профиль формата : Layer 3
    Режим : Joint stereo
    Расширение режима : MS Stereo
    Идентификатор кодека : 55
    Идентификатор кодека/Подсказка : MP3
    Продолжительность : 27 м.
    Вид битрейта : Постоянный
    Битрейт : 128 Кбит/сек
    Каналы : 2 канала
    Частота : 48, 0 КГц
    Метод сжатия : С потерями
    Размер потока : 25, 1 Мбайт (7%)
    Выравнивание : Разделение по промежуткам
    Продолжительность промежутка : 40 мс. (1, 00 видеокадр)
    Время предзагрузки промежутка : 500 мс.
    Аудио #2
    Идентификатор : 2
    Формат : MPEG Audio
    Версия формата : Version 1
    Профиль формата : Layer 3
    Режим : Joint stereo
    Расширение режима : MS Stereo
    Идентификатор кодека : 55
    Идентификатор кодека/Подсказка : MP3
    Продолжительность : 27 м.
    Вид битрейта : Постоянный
    Битрейт : 128 Кбит/сек
    Каналы : 2 канала
    Частота : 48, 0 КГц
    Метод сжатия : С потерями
    Размер потока : 25, 1 Мбайт (7%)
    Выравнивание : Разделение по промежуткам
    Продолжительность промежутка : 40 мс. (1, 00 видеокадр)
    Время предзагрузки промежутка : 500 мс.


    Скриншоты для ознакомления




    Онлайн видео Вице-президент



    Вице-президент/Вице/Veep (2016) HDTVRip (сезон 5, серии 1 из 10) Novamedia (обновляемая)
    загрузка...
    Рейтинг →
     (голосов: 1, оценка 5/5, голосовать можно 1 раз )

    Другие торренты по теме:



      Комментарии (0):

      Информация

      Информация

        Посетители, находящиеся в группе Гости, не могут оставлять комментарии в данной новости.

        ↓ Меню




        ↓ Опрос

        Вы добавили сайт в закладки?
        Да
        Нет


        Top 10 за месяц (Фильмы)