.
Авторизация | Регистрация
Хочешь лучшие торренты? Добавь свой email!
Добавить

Торрент скачать бесплатно

» » Кремниевая долина / Silicon Valley (2016) HDTVRip (сезон 3, серии 1 из 10) Greb&CGC (обновляемая) торрент скачать бесплатно




    Кремниевая долина / Silicon Valley (2016) HDTVRip (сезон 3, серии 1 из 10) Greb&CGC (обновляемая) торрент скачать бесплатно

    Опубликовал: Админ | Дата: 26-04-2016, 04:00 | Просмотров: 134

    Производство: США/3 Arts Entertainment, Altschuler Krinsky Works, Judgemental Films Inc.
    Жанр: комедия
    Режиссер: Майк Джадж, Алек Берг, Тришиа Брок

    Актеры
    Томас Миддлдитч, ТиДжей Миллер, Джош Бренер, Мартин Старр, Кумэйл Нанджиани, Али Моджи, Аманда Крю, Зак Вудс, Кристофер Ивэн Уэлш, Мэтт Росс и др.

    Описание

    История о группе гиков, готовящих к запуску собственные стартапы в высокотехнологичном центре Сан-Франциско. Главные герои сериала бесплатно проживают в доме местного миллионера, но взамен им придётся отдать по 10% прибыли от будущих проектов.

    Продолжительность: ~00: 28: 00 серия
    Качество видео: HDTVRip
    Перевод: Многоголосый закадровый, профессиональный -студия GrebCGC по заказу Amedia
    Вид субтитров: отдельным файлом
    Язык субтитров: русский
    Видео: XviD, 720x400 (16: 9), ~1500 kb/s
    Аудио Rus: MPEG Layer 3, 48, 0 kHz, 2 ch, 128 kb/s — многоголосый закадровый
    Аудио Eng: MPEG Layer 3, 48, 0 kHz, 2 ch, 128 kb/s — оригинал
    Общее
    Полное имя : D: Кремниевая долина (сезон любимого сериала 3) Silicon Valley (2016) HDTVRip - AmediaSilicon.Valley.S03E01.HDTVRip.Rus.Eng.DV.Amedia.avi
    Формат : AVI
    Формат/Информация : Audio Video Interleave
    Размер файла : 346 Мбайт
    Продолжительность : 27 м.
    Общий поток : 1747 Кбит/сек
    Название фильма : Silicon.Valley.S03E01.HDTVRip.Rus.Eng.DV.Amedia/NNM-Club
    Программа кодирования : VirtualDubModRus 1.5.10.2 (build 2542/release)
    Библиотека кодирования : VirtualDubMod build 2542/release
    Видео
    Идентификатор : 0
    Формат : MPEG-4 Visual
    Профиль формата : Advanced Simple@L5
    Параметр BVOP формата : 2
    Параметр QPel формата : Нет
    Параметр GMC формата : Без точки перехода
    Параметр матрицы формата : Default (H.263)
    Идентификатор кодека : XVID
    Идентификатор кодека/Подсказка : XviD
    Продолжительность : 27 м.
    Битрейт : 1477 Кбит/сек
    Ширина : 720 пикселей
    Высота : 400 пикселей
    Соотношение сторон : 16: 9
    Частота кадров : 25, 000 кадров/сек
    Цветовое пространство : YUV
    Субдискретизация насыщенности : 4: 2: 0
    Битовая глубина : 8 бит
    Тип развёртки : Прогрессивная
    Метод сжатия : С потерями
    Бит/(Пиксели*Кадры) : 0.205
    Размер потока : 292 Мбайт (85%)
    Заголовок : Rip by DriverV/NNM-Club
    Библиотека кодирования : XviD 64
    Аудио #1
    Идентификатор : 1
    Формат : MPEG Audio
    Версия формата : Version 1
    Профиль формата : Layer 3
    Режим : Joint stereo
    Расширение режима : MS Stereo
    Идентификатор кодека : 55
    Идентификатор кодека/Подсказка : MP3
    Продолжительность : 27 м.
    Вид битрейта : Постоянный
    Битрейт : 128 Кбит/сек
    Каналы : 2 канала
    Частота : 48, 0 КГц
    Метод сжатия : С потерями
    Размер потока : 25, 3 Мбайт (7%)
    Выравнивание : Разделение по промежуткам
    Продолжительность промежутка : 40 мс. (1, 00 видеокадр)
    Время предзагрузки промежутка : 500 мс.
    Аудио #2
    Идентификатор : 2
    Формат : MPEG Audio
    Версия формата : Version 1
    Профиль формата : Layer 3
    Режим : Joint stereo
    Расширение режима : MS Stereo
    Идентификатор кодека : 55
    Идентификатор кодека/Подсказка : MP3
    Продолжительность : 27 м.
    Вид битрейта : Постоянный
    Битрейт : 128 Кбит/сек
    Каналы : 2 канала
    Частота : 48, 0 КГц
    Метод сжатия : С потерями
    Размер потока : 25, 3 Мбайт (7%)
    Выравнивание : Разделение по промежуткам
    Продолжительность промежутка : 40 мс. (1, 00 видеокадр)
    Время предзагрузки промежутка : 500 мс.


    Скриншоты для ознакомления




    Онлайн видео Кремниевая долина



    Кремниевая долина/Silicon Valley (2016) HDTVRip (сезон 3, серии 1 из 10) Greb&CGC (обновляемая)
    загрузка...
    Рейтинг →
     (голосов: 1, оценка 5/5, голосовать можно 1 раз )

    Другие торренты по теме:

  • Силиконовая долина / Кремниевая долина / Silicon Valley (2017) WEBRip (сезон 4, серии 1 из 10) Кубик в Кубе (обновляемая)
  • Силиконовая долина / Кремниевая долина / Silicon Valley (2017) WEBRip [H.264 / 1080p-LQ] (сезон 4, серия 1 из 10) Кубик в Кубе (обновляемая)
  • Кремниевая долина / Silicon Valley (2015) HDTV [H.264 / 720p-LQ] (сезон 2, серии 1-8 из 10) BaibaKo (обновляемая) скачать через торрент бесплатно
  • Кремниевая долина / Silicon Valley (2014) HDTVRip (сезон 1, серии 1-8 из 8) Кубик в Кубе скачать через торрент бесплатно
  • Кремниевая долина / Silicon Valley (2015) HDTV [H.264 / 1080p-LQ] (сезон 2, серии 1-10 из 10) BaibaKo скачать через торрент бесплатно
  • Кремниевая долина / Silicon Valley (2014) [H.264 / 720p-LQ] (сезон 1, серии 1-8 из 8) BaibaKo скачать через торрент бесплатно
  • Кремниевая долина / Silicon Valley (2015) HDTV [H.264 / 720p-LQ] (сезон 2, серии 1-10 из 10) Кубик в Кубе скачать через торрент бесплатно
  • Кремниевая долина / Silicon Valley (2015) HDTVRip (сезон 2, серии 1-10 из 10) Кубик в Кубе скачать через торрент бесплатно


    • Комментарии (0):

      Информация

      Информация

        Посетители, находящиеся в группе Гости, не могут оставлять комментарии в данной новости.

        ↓ Меню




        ↓ Опрос

        Вы добавили сайт в закладки?
        Да
        Нет


        Top 10 за месяц (Фильмы)