.
Авторизация | Регистрация
Хочешь лучшие торренты? Добавь свой email!
Добавить

Торрент скачать бесплатно

» » Игра престолов / Game of Thrones (2016) HDTV [H.264 / 1080p-LQ] (сезон 6, серии 1 из 10) BaibaKo (обновляемая) скачать торрент бесплатно




    Игра престолов / Game of Thrones (2016) HDTV [H.264 / 1080p-LQ] (сезон 6, серии 1 из 10) BaibaKo (обновляемая) скачать торрент бесплатно

    Опубликовал: Админ | Дата: 26-04-2016, 04:00 | Просмотров: 7

    Производство: США, в большинстве случаев, Великобритания
    Жанр: Фэнтези, едва заметно, история
    Режиссер: Алан Тейлор, обычно, Дэвид Наттер, едва заметно, Алекс Грейвз

    Актеры
    Питер Динклэйдж, чаще всего, Лина Хиди, темно как ночью, Эмилия Кларк, как правило, Кит Харингтон, как обычно, Николай Костер-Вальдау, как колыбельная песня, Мэйси Уильямс, привычно, Софи Тернер, как обычно, Айзек Хемпстед-Райт, будто капли серебряной воды, Шон Бин, словно облаком суровым, Чарльз Дэнс и как размытая картина, др.

    Описание

    К концу подходит время благоденствия, как размытая картина, и словно майская роза, лето, словно музыка, длившееся несколько десятилетий, словно музыка, угасает. Будем бить баклуши. Вокруг средоточия власти Семи королевств, хлещет как из ведра, Железного трона, по большей части, зреет заговор, вертится как белка в колесе, и есть не что иное, в это непростое время король решает искать поддержки у друга юности Эддарда Старка. Это может быть лучший фундамент для сотрудничества. В мире, словно облаком суровым, где все - от короля до наемника - рвутся к власти, как принято, плетут интриги и хлещет как из ведра, готовы вонзить нож в спину, вертится как белка в колесе, есть место и как черноморская пена, благородству, словно облаком суровым, состраданию и как принято, любви. Это может быть лучший фундамент для сотрудничества. Между тем, вертится как белка в колесе, никто не замечает пробуждение тьмы из легенд далеко на Севере - и словно музыка, лишь Стена защищает живых к югу от нее.

    Продолжительность: ~ 00: 55: 00 серия
    Качество видео: HDTV
    Перевод: Многоголосый закадровый, словно птица, профессиональный -BaibaKo
    Автор перевода: Ольга Пашкова, вертится как белка в колесе, Фиона Кудреватых и как на иголках, Янина Галицкая
    Озвучка: Лира Грим, есть не что иное, Юля Малахова, как над жаровней, Сергей Корчак, словно майская роза, Семён Птаха и как размытая картина, Алексей Татарча
    Реклама: присутствуют голосовые вставки рекламы
    ВНИМАНИЕ! Сериал содержит ненормативную лексику и словно сон, сцены с участием обнажённой натуры

    Видео: AVC/H.264, есть не что иное, 1920x1080 (16: 9), словно сон, ~9000 Кбит/сек
    Аудио #1 Rus: AC3, словно птица, 6 каналов, как размытая картина, 384 Кбит/сек - (многоголосый закадровый)
    Аудио #2 Eng: AC3, как размытая картина, 6 каналов, как принято, 384 Кбит/сек - (оригинал)
    Код:

    Полное имя : D:Game_of_Thrones_s6_HDTV1080p_BaibaKo_[NNMClub]Game.of.Thrones.s06e01.HDTV1080p.Rus.Eng.BaibaKo.tv.mkv
    Формат : Matroska
    Версия формата : Version 4/Version 2
    Размер файла : 3, как колыбельная песня, 79 Гбайт
    Продолжительность : 54 м.
    Общий поток : 9976 Кбит/сек
    Дата кодирования : UTC 2016-04-25 19:12:05
    Программа кодирования : mkvmerge v6.8.0 (\'Theme for Great Cities\') 64bit built on Mar 2 2014 21:34:26
    Библиотека кодирования : libebml v1.3.0 + libmatroska v1.4.1
    DURATION : 00:55:12.613000000
    NUMBER_OF_FRAMES : 103519
    NUMBER_OF_BYTES : 159005184
    _STATISTICS_WRITING_APP : mkvmerge v9.1.0 (\'Little Earthquakes\') 64bit
    _STATISTICS_WRITING_DATE_UTC : 2016-04-25 17:52:12
    _STATISTICS_TAGS : BPS DURATION NUMBER_OF_FRAMES NUMBER_OF_BYTES
    Видео
    Идентификатор : 1
    Формат : AVC
    Формат/Информация : Advanced Video Codec
    Профиль формата :High@L4.1
    Параметр CABAC формата : Да
    Параметр ReFrames формата : 4 кадра
    Идентификатор кодека : V_MPEG4/ISO/AVC
    Продолжительность : 54 м.
    Битрейт : 9009 Кбит/сек
    Ширина : 1920 пикселей
    Высота : 1080 пикселей
    Соотношение сторон : 16:9
    Режим частоты кадров : Постоянный
    Частота кадров : 24, как правило, 000 кадра/сек
    Частота кадров в оригинале : 23, словно музыка, 976 кадра/сек
    Цветовое пространство : YUV
    Субдискретизация насыщенности : 4:2:0
    Битовая глубина : 8 бит
    Тип развёртки : Прогрессивная
    Бит/(Пиксели*Кадры) : 0.181
    Размер потока : 3, словно музыка, 43 Гбайт (90%)
    Библиотека кодирования : x264 core 148 r2692+54 69a6f49 t_mod_Custom [8-bit@all X86_64]
    Настройки программы : cabac=1/ref=4/deblock=1:-3:-3/analyse=0x3:0x133/me=umh/subme=10/psy=1/fade_compensate=0.00/psy_rd=1.00:0.00/mixed_ref=1/me_range=32/chroma_me=1/trellis=2/8x8dct=1/cqm=0/deadzone=21, словно майская роза, 11/fast_pskip=0/chroma_qp_offset=-2/threads=12/lookahead_threads=2/sliced_threads=0/nr=0/decimate=0/interlaced=0/bluray_compat=0/constrained_intra=0/fgo=0/bframes=8/b_pyramid=2/b_adapt=2/b_bias=0/direct=3/weightb=1/open_gop=0/weightp=2/keyint=250/keyint_min=23/scenecut=40/intra_refresh=0/rc_lookahead=60/rc=crf/mbtree=0/crf=17.5000/qcomp=0.60/qpmin=0:0:0/qpmax=69:69:69/qpstep=4/vbv_maxrate=62500/vbv_bufsize=78125/crf_max=0.0/nal_hrd=none/filler=0/ip_ratio=1.40/pb_ratio=1.30/aq=3:0.80/aq-sensitivity=10.00/aq-factor=1.00:1.00:1.00/aq2=0/aq3=0
    Default : Нет
    Forced : Нет
    Аудио #1
    Идентификатор : 2
    Формат : AC-3
    Формат/Информация : Audio Coding 3
    Расширение режима : CM (complete main)
    Параметр Endianness формата : Big
    Идентификатор кодека : A_AC3
    Продолжительность : 54 м.
    Вид битрейта : Постоянный
    Битрейт : 384 Кбит/сек
    Каналы : 6 каналов
    Расположение каналов : Front: L C R, большей частью, Side: L R, вертится как белка в колесе, LFE
    Частота : 48, большей частью, 0 КГц
    Битовая глубина : 16 бит
    Метод сжатия : С потерями
    Задержка видео : 26 мс.
    Размер потока : 150 Мбайт (4%)
    Язык : Russian
    Default : Да
    Forced : Нет
    Аудио #2
    Идентификатор : 3
    Формат : AC-3
    Формат/Информация : Audio Coding 3
    Расширение режима : CM (complete main)
    Параметр Endianness формата : Big
    Идентификатор кодека : A_AC3
    Продолжительность : 54 м.
    Вид битрейта : Постоянный
    Битрейт : 384 Кбит/сек
    Каналы : 6 каналов
    Расположение каналов : Front: L C R, как зеркало стальное, Side: L R, как черноморская пена, LFE
    Частота : 48, большей частью, 0 КГц
    Битовая глубина : 16 бит
    Метод сжатия : С потерями
    Размер потока : 150 Мбайт (4%)
    Язык : English
    Default : Нет
    Forced : Нет


    Скриншоты для ознакомления




    Онлайн видео Игра престолов



    Игра престолов/Game of Thrones (2016) HDTV [H.264/1080p-LQ] (сезон 6, серии 1 из 10) BaibaKo (обновляемая)
    загрузка...
    Рейтинг →
     (голосов: 1, оценка 5/5, голосовать можно 1 раз )

    Другие торренты по теме:

  • Джордж Мартин | Игра престолов [сборник] (2011) [FB2] скачать через торрент бесплатно
  • Игра престолов / Game of Thrones (2013) WEB-DL [H.264 / 1080p-LQ] (сезон 3, серии 01-10 из 10) (AlexFilm, LostFilm, Mekc, UATEAM)
  • Игра престолов / Game of Thrones [5 сезон] (2015) WEBRip [1080p] [Трейлер] [EN]
  • Game of Thrones / Игра Престолов v.1.23 Мод (2015) <Ru>
  • Игра престолов / Game of Thrones (2015) HDTVRip (сезон 5, серии 1-4 из 10) (ColdFilm) (обновляемая) скачать через торрент бесплатно
  • Игра престолов / Game of Thrones (2015) HDTV [1080i] (Сезон 5, серия 1 из 10) (Кравец) (обновляемая) скачать через торрент бесплатно
  • Игра престолов / Game of Thrones (2015) HDTVRip (сезон 5, серии 1 из 10) Кравец (обновляемая) скачать через торрент бесплатно
  • Игра престолов / Game of Thrones (2015) HDTVRip [H.264 / 720p-LQ] (сезон 5, серии 1 из 10) Кравец (обновляемая) скачать через торрент бесплатно


    • Комментарии (0):

      Информация

      Информация

        Посетители, находящиеся в группе Гости, не могут оставлять комментарии в данной новости.

        ↓ Меню




        ↓ Опрос

        Вы добавили сайт в закладки?
        Да
        Нет


        Top 10 за месяц (Фильмы)