.
Авторизация | Регистрация
Хочешь лучшие торренты? Добавь свой email!
Добавить

Торрент скачать бесплатно

» » Мушкетеры / The Musketeers (2016) WEB-DLRip (сезон 3, серии 1 из 10) NewStudio (обновляемая) торрент скачать бесплатно




    Мушкетеры / The Musketeers (2016) WEB-DLRip (сезон 3, серии 1 из 10) NewStudio (обновляемая) торрент скачать бесплатно

    Опубликовал: Админ | Дата: 26-04-2016, 04:00 | Просмотров: 6

    Производство: Великобритания/BBC America, BBC Drama Productions, BBC Worldwide
    Жанр: драма, приключения
    Режиссер: Энди Хэй, Николас Рентон, Фэррен Блэкберн

    Актеры
    Люк Паскуалино, Том Бёрк, Ховард Чарльз, Сантьяго Кабрера, Райан Гейдж, Хьюго Спир, Тамла Кари, Мэйми МакКой, Александра Доулинг, Питер Капальди и др.

    Описание

    Париж, XVII век. Прикольно все это наверно придумал Железный человек потратив достаточно времени. Знакомые с детства герои вновь встречаются, чтобы скрестить шпаги, не подозревая, что эта ссора трое на одного — начало большой дружбы и целой череды увлекательных приключений. Дерзкий Д\'Артаньян одержим идеей мести и раздираем амбициями, а мушкетеры то и дело ввязываются в самые разнообразные потасовки, не жалея пуль, не щадя противников и не разбирая, кто прав, кто виноват. Вы деретесь ради драки, ради смеха льете кровь!.

    Продолжительность: ~00: 59: 00 серия
    Качество видео: WEB-DLRip
    Перевод: Многоголосый закадровый, профессиональный -NewStudio
    Автор перевода: Weirdie
    Видео: XviD, 720x400 (16: 9), ~1400 kb/s
    Аудио Rus: MPEG Layer 3, 48, 0 kHz, 2 ch, 128 kb/s — многоголосый закадровый
    Аудио Eng: MPEG Layer 3, 48, 0 kHz, 2 ch, 128 kb/s — оригинал
    Общее
    Полное имя : D: Мушкетеры (сезон любимого сериала 3) The Musketeers (2016) WEB-DLRip - NewStudioThe.Musketeers.S03E01.WEBDLRip.Rus.Eng.DV.NewStudio.avi
    Формат : AVI
    Формат/Информация : Audio Video Interleave
    Размер файла : 692 Мбайт
    Продолжительность : 58 м.
    Общий поток : 1647 Кбит/сек
    Название фильма : The.Musketeers.S03E01.WEBDLRip.Rus.Eng.DV.NewStudio/NNM-Club
    Программа кодирования : VirtualDubModRus 1.5.10.2 (build 2542/release)
    Библиотека кодирования : VirtualDubMod build 2542/release
    Видео
    Идентификатор : 0
    Формат : MPEG-4 Visual
    Профиль формата : Advanced Simple@L5
    Параметр BVOP формата : 2
    Параметр QPel формата : Нет
    Параметр GMC формата : Без точки перехода
    Параметр матрицы формата : Default (MPEG)
    Идентификатор кодека : XVID
    Идентификатор кодека/Подсказка : XviD
    Продолжительность : 58 м.
    Битрейт : 1376 Кбит/сек
    Ширина : 720 пикселей
    Высота : 400 пикселей
    Соотношение сторон : 16: 9
    Частота кадров : 25, 000 кадров/сек
    Цветовое пространство : YUV
    Субдискретизация насыщенности : 4: 2: 0
    Битовая глубина : 8 бит
    Тип развёртки : Прогрессивная
    Метод сжатия : С потерями
    Бит/(Пиксели*Кадры) : 0.191
    Размер потока : 578 Мбайт (84%)
    Библиотека кодирования : XviD 73
    Аудио #1
    Идентификатор : 1
    Формат : MPEG Audio
    Версия формата : Version 1
    Профиль формата : Layer 3
    Режим : Joint stereo
    Расширение режима : MS Stereo
    Идентификатор кодека : 55
    Идентификатор кодека/Подсказка : MP3
    Продолжительность : 58 м.
    Вид битрейта : Постоянный
    Битрейт : 128 Кбит/сек
    Каналы : 2 канала
    Частота : 48, 0 КГц
    Метод сжатия : С потерями
    Размер потока : 53, 8 Мбайт (8%)
    Выравнивание : Соединение по промежуткам
    Продолжительность промежутка : 40 мс. (1, 00 видеокадр)
    Время предзагрузки промежутка : 504 мс.
    Аудио #2
    Идентификатор : 2
    Формат : MPEG Audio
    Версия формата : Version 1
    Профиль формата : Layer 3
    Режим : Joint stereo
    Расширение режима : MS Stereo
    Идентификатор кодека : 55
    Идентификатор кодека/Подсказка : MP3
    Продолжительность : 58 м.
    Вид битрейта : Постоянный
    Битрейт : 128 Кбит/сек
    Каналы : 2 канала
    Частота : 48, 0 КГц
    Метод сжатия : С потерями
    Размер потока : 53, 8 Мбайт (8%)
    Выравнивание : Соединение по промежуткам
    Продолжительность промежутка : 40 мс. (1, 00 видеокадр)
    Время предзагрузки промежутка : 504 мс.
    Библиотека кодирования : LAME3.99.5ЄЄЄЄЄЄЄЄЄЄ


    Скриншоты для ознакомления




    Онлайн видео Мушкетеры



    Мушкетеры/The Musketeers (2016) WEB-DLRip (сезон 3, серии 1 из 10) NewStudio (обновляемая)
    загрузка...
    Рейтинг →
     (голосов: 1, оценка 5/5, голосовать можно 1 раз )

    Другие торренты по теме:

  • Мушкетеры / The Musketeers (2015) HDTVRip (сезон 2, серии 1-2 из 10) NewStudio (обновляемая) скачать через торрент бесплатно
  • Мушкетеры / The Musketeers (2014) BDRip [720p] (сезон 1, серии 1 из 10) (РенТВ) (обновляемая) скачать через торрент бесплатно
  • Мушкетеры / The Musketeers (2015) HDTVRip (сезон 2, серии 1-2 из 10) BaibaKo (обновляемая) скачать через торрент бесплатно
  • Мушкетеры / The Musketeers (2015) HDTV [H.264 / 1080i-LQ] (сезон 2, серии 1-3 из 10) (BaibaKo) (Обновляемая) скачать через торрент бесплатно
  • Мушкетеры / The Musketeers (2016) WEB-DLRip (сезон 3, серии 1 из 10) LostFilm (обновляемая)


    • Комментарии (0):

      Информация

      Информация

        Посетители, находящиеся в группе Гости, не могут оставлять комментарии в данной новости.

        ↓ Меню




        ↓ Опрос

        Вы добавили сайт в закладки?
        Да
        Нет


        Top 10 за месяц (Фильмы)