.
Авторизация | Регистрация
Хочешь лучшие торренты? Добавь свой email!
Добавить

Торрент скачать бесплатно

» » Физрук (2016) WEB-DLRip (Сезон 3, серии 1-4 из 20) (обновляемая) торрент скачать бесплатно




    Физрук (2016) WEB-DLRip (Сезон 3, серии 1-4 из 20) (обновляемая) торрент скачать бесплатно

    Опубликовал: Админ | Дата: 25-04-2016, 04:00 | Просмотров: 5

    Производство: Россия/Good Story Media по заказу тнт
    Жанр: Комедия
    Режиссер: Дмитрий Губарев

    Актеры
    Дмитрий Нагиев, Александр Гордон, Полина Гренц, Анастасия Панина, Владимир Сычёв, Данила Вахрушев, Андрей Крыжний, Артур Сопельник, Оксана Сидоренко, Карина Мишулина, Роман Индык, Елена Муравьёва, Евгений Кулаков, Виктория Клинкова, Ян Цапник, Екатерина Айсина, Наталья Коренная, Варвара Богданова, Мария Киселева, Иван Мудров, Дмитрий Гогу, Владимир Жеребцов, Владимир Епископосян, Сергей Серов, Сергей Журавлёв, Любовь Германова, Борис Клюев, Дмитрий Власкин

    Описание

    Это история о столкновении двух времен: лихих 90-х и стабильных десятых. Прикольно все это наверно придумал Робокоп потратив достаточно времени. Главный герой Фома всю жизнь был правой рукой влиятельного человека с полукриминальным прошлым. Когда хозяин выгнал его на пенсию, Фома решил любым способом вернуться обратно. Сначала казалось, что все будет просто: подобраться к ребенку бывшего босса, прогнуться, напомнить о себе и вернуться в дело. Но план Фомы рушится в первый же день. В школе ему приходится задержаться надолго. Попав в абсолютно незнакомый мир детей и учителей, который кардинально отличается от привычного ему круга, Фома не только меняет свою жизнь, но и меняется сам.

    Возраст: 16+ (зрителям, достигшим 16 лет)
    Продолжительность: ~00: 25: 00 серия
    Качество видео: WEB-DLRip
    Видео: MPEG4, XviD, 720x400 (16: 9), 25.000 fps, 1 523 Kbps (0.211 bit/pixel)
    Аудио: AC-3, 48.0 KHz, 2 ch, 192 Kbps, CBR
    Код:

    Формат : AVI
    Формат/Информация : Audio Video Interleave
    Размер файла : 296 Мбайт
    Продолжительность : 24 м.
    Общий поток : 1725 Кбит/сек
    Программа кодирования : VirtualDubMod 1.5.10.3 (build 2550/release)
    Библиотека кодирования : VirtualDubMod build 2550/release
    Видео
    Идентификатор : 0
    Формат : MPEG-4 Visual
    Профиль формата : Advanced Simple@L5
    Параметр BVOP формата : 1
    Параметр QPel формата : Нет
    Параметр GMC формата : Без точки перехода
    Параметр матрицы формата : Выборочная
    Идентификатор кодека : XVID
    Идентификатор кодека/Подсказка : XviD
    Продолжительность : 24 м.
    Битрейт : 1523 Кбит/сек
    Ширина : 720 пикселей
    Высота : 400 пикселей
    Соотношение сторон : 16:9
    Частота кадров : 25, 000 кадров/сек
    Цветовое пространство : YUV
    Субдискретизация насыщенности : 4:2:0
    Битовая глубина : 8 бит
    Тип развёртки : Прогрессивная
    Метод сжатия : С потерями
    Бит/(Пиксели*Кадры) : 0.211
    Размер потока : 261 Мбайт (88%)
    Библиотека кодирования : XviD 73
    Аудио
    Идентификатор : 1
    Формат : AC-3
    Формат/Информация : Audio Coding 3
    Расширение режима : CM (complete main)
    Параметр Endianness формата : Big
    Идентификатор кодека : 2000
    Продолжительность : 24 м.
    Вид битрейта : Постоянный
    Битрейт : 192 Кбит/сек
    Каналы : 2 канала
    Расположение каналов : Front: L R
    Частота : 48, 0 КГц
    Битовая глубина : 16 бит
    Метод сжатия : С потерями
    Размер потока : 33, 0 Мбайт (11%)
    Выравнивание : Разделение по промежуткам
    Продолжительность промежутка : 40 мс. (1, 00 видеокадр)
    Время предзагрузки промежутка : 500 мс.


    Скриншоты для ознакомления




    Онлайн видео Физрук (2016) WEB



    Физрук (2016) WEB-DLRip (Сезон 3, серии 1-4 из 20) (обновляемая)
    загрузка...
    Рейтинг →
     (голосов: 1, оценка 4/5, голосовать можно 1 раз )

    Другие торренты по теме:

  • Физрук (2014) WEB-DLRip [H.264 / 720p-LQ] (Сезон 2, серии 1-2 из 20) (обновляемая) скачать через торрент бесплатно
  • Физрук (2014) WEB-DLRip (Сезон 2, серии 1 из 20) (обновляемая) скачать через торрент бесплатно
  • Физрук (2014) WEB-DLRip (Сезон 2, серии 1-3 из 20) (обновляемая)
  • Физрук (2014) WEB-DLRip [H.264] (Сезон 2, серии 1-5 из 20) (обновляемая) скачать через торрент бесплатно
  • Физрук (2014) WEB-DLRip [H.264] (Сезон 2, серии 6-13 из 20) (обновляемая) (временная)
  • Физрук (2016) WEB-DLRip [H.264] (сезон 3, серии 1-21 из 21)
  • Физрук (2017) WEB-DLRip [H.264] (сезон 4, серии 1-2 из 21) (Обновляемая)
  • Физрук (2017) WEB-DLRip (сезон 4, серии 1-2 из 20) (обновляемая)


    • Комментарии (0):

      Информация

      Информация

        Посетители, находящиеся в группе Гости, не могут оставлять комментарии в данной новости.

        ↓ Меню




        ↓ Опрос

        Вы добавили сайт в закладки?
        Да
        Нет


        Top 10 за месяц (Фильмы)