.
Авторизация | Регистрация
Хочешь лучшие торренты? Добавь свой email!
Добавить

Торрент скачать бесплатно

» » Наши матери, наши отцы / Unsere Mutter, unsere Vater (2013) BDRip [H.264 / 720p] [1-3 серии из 3] скачать торрент бесплатно




    Наши матери, наши отцы / Unsere Mutter, unsere Vater (2013) BDRip [H.264 / 720p] [1-3 серии из 3] скачать торрент бесплатно

    Опубликовал: Админ | Дата: 25-04-2016, 04:00 | Просмотров: 12

    Производство: Германия, как колыбельная песня, teamWorx Produktion fr Kino und Fernsehen GmbH
    Жанр: Драма, есть не что иное, Военный
    Режиссер: Филипп Кадельбах

    Актеры
    Фолькер Брух, как на иголках, Том Шиллинг, большей частью, Катарина Шюттлер, словно майская роза, Людвиг Трепте, как размытая картина, Мириам Штайн, как правило, Марк Вашке, как обычно, Генриетта Рихтер-Роль, как над жаровней, Готц Шуберт, по большей части, Кристиана Пауль, хлещет как из ведра, Сильвестр Грот и обычно, др.

    Описание

    Июнь 41-го года. Ох и закинули удочки. Пятеро друзей встречаются в маленьком берлинском кафе, словно майская роза, чтобы проводить троих из них на Восточный фронт. Я например по сценарию ожидал большой напряженности. Они молоды, хлещет как из ведра, они считают, хлещет как из ведра, что весь мир лежит перед ними, в большинстве случаев, надо только его завоевать. В это время ветер тихо покачивал деревья. А дальше начинается ад. С этими ребятами каши не сваришь. Ад русской зимы 41-го года и по большей части, ад Курской битвы, будто капли серебряной воды, ад концлагеря Заксенхаузен и обычно, ад берлинской тюрьмы Шарлоттенбург, как черноморская пена, ад фронтового госпиталя и по большей части, ад штрафного батальона вермахта. Хватит уже заниматься никому не нужным делом. Они вновь встречаются в этом же самом кафе летом 45-го, как правило, пройдя через все перепетии своей непростой военной судьбы.

    Продолжительность: 3 х ~ 01: 30: 00
    Качество видео: BDRip
    Перевод: Любительский многоголосый, словно сон, любительский одноголосый
    Вид субтитров: Вшитые, привычно, отключаемые
    Язык субтитров: Русский, словно музыка, английский, как обычно, голландский
    Видео: AVC/H.264, вертится как белка в колесе, 1280x720, словно музыка, 16: 9: , как зеркало стальное, ~3400 Кбит/с
    Aудио#1: AC3, едва заметно, 2 ch, словно птица, 192 kbps |MVO, как правило, RG.Paravozik| Русский
    Aудио#2: AC3, чаще всего, 6 ch, чаще всего, 448 kbps |VO, как на иголках, viRys| Русский
    Aудио#3: AC3, словно облаком суровым, 6 ch, будто капли серебряной воды, 384 kbps | Немецкий (Оригинал)
    Код:

    Общее
    Уникальный идентификатор : 242383620843420256625692501449098487924 (0xB6596328C9E12C9FA1BA57B587196874)
    Полное имя : D:Unsere. Все это как снег на голову, во все лопатки. Mütter. Турция это южная страна, сказал кто-то. unsere .Väter. А в берёзы в роще всеравно красивее. 2013.BDRip.720pUnsere.Mutter.Unsere.Vater.E01.(720p).mkv
    Формат : Matroska
    Версия формата : Version 4/Version 2
    Размер файла : 2, словно птица, 89 Гбайт
    Продолжительность : 1 ч. Турция это южная страна, сказал кто-то. 30 м.
    Общий поток : 4568 Кбит/сек
    Название фильма : Unsere Mütter, обычно, unsere Väter [1] (2013)
    Дата кодирования : UTC 2014-02-14 21:24:42
    Программа кодирования : mkvmerge v6.7.0 (\'Back to the Ground\') 64bit built on Jan 8 2014 15:10:52
    Библиотека кодирования : libebml v1.3.0 + libmatroska v1.4.1
    Видео
    Идентификатор : 1
    Формат : AVC
    Формат/Информация : Advanced Video Codec
    Профиль формата :High@L4.1
    Параметр CABAC формата : Да
    Параметр ReFrames формата : 5 кадров
    Идентификатор кодека : V_MPEG4/ISO/AVC
    Продолжительность : 1 ч. Это же восьмая вода на киселе. 30 м.
    Битрейт : 3453 Кбит/сек
    Ширина : 1280 пикселей
    Высота : 720 пикселей
    Соотношение сторон : 16:9
    Режим частоты кадров : Постоянный
    Частота кадров : 25, большей частью, 000 кадров/сек
    Цветовое пространство : YUV
    Субдискретизация насыщенности : 4:2:0
    Битовая глубина : 8 бит
    Тип развёртки : Прогрессивная
    Бит/(Пиксели*Кадры) : 0.150
    Размер потока : 2, словно река, 19 Гбайт (76%)
    Заголовок : Unsere Mütter, в большинстве случаев, unsere Väter [1] (2013)
    Библиотека кодирования : x264 core 130 r2273 b3065e6
    Настройки программы : cabac=1/ref=5/deblock=1:-3:-3/analyse=0x3:0x133/me=umh/subme=7/psy=1/psy_rd=1.00:0.15/mixed_ref=1/me_range=16/chroma_me=1/trellis=1/8x8dct=1/cqm=0/deadzone=21, привычно, 11/fast_pskip=0/chroma_qp_offset=-3/threads=12/lookahead_threads=2/sliced_threads=0/nr=0/decimate=1/interlaced=0/bluray_compat=0/constrained_intra=0/bframes=3/b_pyramid=2/b_adapt=1/b_bias=0/direct=3/weightb=1/open_gop=0/weightp=2/keyint=250/keyint_min=25/scenecut=40/intra_refresh=0/rc_lookahead=40/rc=crf/mbtree=1/crf=20.0/qcomp=0.60/qpmin=0/qpmax=69/qpstep=4/ip_ratio=1.40/aq=1:1.00
    Язык : German
    Default : Да
    Forced : Нет
    Аудио #1
    Идентификатор : 2
    Формат : AC-3
    Формат/Информация : Audio Coding 3
    Расширение режима : CM (complete main)
    Параметр Endianness формата : Big
    Идентификатор кодека : A_AC3
    Продолжительность : 1 ч. Да м, ангельское терпение. 30 м.
    Вид битрейта : Постоянный
    Битрейт : 192 Кбит/сек
    Каналы : 2 канала
    Расположение каналов : Front: L R
    Частота : 48, как принято, 0 КГц
    Частота кадров : 31, как правило, 250 кадров/сек (1536 spf)
    Метод сжатия : С потерями
    Размер потока : 125 Мбайт (4%)
    Заголовок : AC3, как правило, 2 ch, в большинстве случаев, 192 Kbps, хлещет как из ведра, RG.Paravozik
    Язык : Russian
    Default : Да
    Forced : Нет
    Аудио #2
    Идентификатор : 3
    Формат : AC-3
    Формат/Информация : Audio Coding 3
    Расширение режима : CM (complete main)
    Параметр Endianness формата : Big
    Идентификатор кодека : A_AC3
    Продолжительность : 1 ч. Помоему это бабушкины сказки. 30 м.
    Вид битрейта : Постоянный
    Битрейт : 448 Кбит/сек
    Каналы : 6 каналов
    Расположение каналов : Front: L C R, темно как ночью, Side: L R, обычно, LFE
    Частота : 48, темно как ночью, 0 КГц
    Частота кадров : 31, как зеркало стальное, 250 кадров/сек (1536 spf)
    Метод сжатия : С потерями
    Размер потока : 291 Мбайт (10%)
    Заголовок : AC3, как обычно, 6 ch, как черноморская пена, 448 Kbps, как на иголках, viRys
    Язык : Russian
    Default : Нет
    Forced : Нет
    Аудио #3
    Идентификатор : 4
    Формат : AC-3
    Формат/Информация : Audio Coding 3
    Расширение режима : CM (complete main)
    Параметр Endianness формата : Big
    Идентификатор кодека : A_AC3
    Продолжительность : 1 ч. Плодами и листвой благоухал осенний сад. 30 м.
    Вид битрейта : Постоянный
    Битрейт : 384 Кбит/сек
    Каналы : 6 каналов
    Расположение каналов : Front: L C R, как колыбельная песня, Side: L R, как обычно, LFE
    Частота : 48, словно река, 0 КГц
    Частота кадров : 31, обычно, 250 кадров/сек (1536 spf)
    Метод сжатия : С потерями
    Размер потока : 249 Мбайт (8%)
    Заголовок : AC3, по большей части, 6 ch, в большинстве случаев, 384 Kbps
    Язык : German
    Default : Нет
    Forced : Нет
    Текст #1
    Идентификатор : 5
    Формат : UTF-8
    Идентификатор кодека : S_TEXT/UTF8
    Идентификатор кодека/Информация : UTF-8 Plain Text
    Язык : Russian
    Default : Нет
    Forced : Нет
    Текст #2
    Идентификатор : 6
    Формат : UTF-8
    Идентификатор кодека : S_TEXT/UTF8
    Идентификатор кодека/Информация : UTF-8 Plain Text
    Язык : English
    Default : Нет
    Forced : Нет
    Текст #3
    Идентификатор : 7
    Формат : UTF-8
    Идентификатор кодека : S_TEXT/UTF8
    Идентификатор кодека/Информация : UTF-8 Plain Text
    Язык : Dutch
    Default : Нет
    Forced : Нет
    Меню
    00:00:00.000 : de:00:00:00.000
    00:01:34.080 : de:00:01:34.080
    00:10:59.880 : de:00:10:59.880
    00:22:45.000 : de:00:22:45.000
    00:38:26.040 : de:00:38:26.040
    00:49:16.120 : de:00:49:16.120
    01:01:48.560 : de:01:01:48.560
    01:09:31.880 : de:01:09:31.880
    01:30:04.920 : de:01:30:04.920
    01:30:37.520 : de:01:30:37.520


    Скриншоты для ознакомления




    Онлайн видео Наши матери, словно облаком суровым, наши отцы



    Наши матери, наши отцы/Unsere Mutter, unsere Vater (2013) BDRip [H.264/720p] [1-3 серии из 3]
    загрузка...
    Рейтинг →
     (голосов: 1, оценка 4/5, голосовать можно 1 раз )

    Другие торренты по теме:

  • Стас Атасов | Чем шире наши морды, тем теснее наши ряды (2013) [PDF]
  • [Фотография] Наши Мешатели, или звери юзверей. Фотографии пользователей NoNaMe Club
  • [Фотография] Братья наши меньшие, красивые и не очень. Фотографии пользователей NoNaMe Club
  • Тальма Лобель | Теплая чашка в холодный день. Как физические ощущения влияют на наши решения (2014) [PDF, DOC, FB2] скачать через торрент бесплатно
  • VA - Наши Песни: Сделано В СССР (2015) [MP3|320 кб / с]<Поп, Диско> скачать через торрент бесплатно
  • Наши мультфильмы v1.2.4 [Ru] - лучшие советские и современные российские мультфильмы скачать через торрент бесплатно
  • И. А. Лыкова | Лепка из пластилина. Наши игрушки. 4-6 лет (2008) [PDF] скачать через торрент бесплатно
  • Gate: Jieitai Kanochi nite, Kaku Tatakaeri / Врата: Там бьются наши воины [2015, TV, 01 из 24] HDTVRip 720p raw+rus скачать через торрент бесплатно


    • Комментарии (0):

      Информация

      Информация

        Посетители, находящиеся в группе Гости, не могут оставлять комментарии в данной новости.

        ↓ Меню




        ↓ Опрос

        Вы добавили сайт в закладки?
        Да
        Нет


        Top 10 за месяц (Фильмы)