.
Авторизация | Регистрация
Хочешь лучшие торренты? Добавь свой email!
Добавить

Торрент скачать бесплатно

» » Пальмы в снегу / Palmeras en la nieve (2015) BDRip [H.264 / 1080p] [Line] торрент скачать бесплатно




    Пальмы в снегу / Palmeras en la nieve (2015) BDRip [H.264 / 1080p] [Line] торрент скачать бесплатно

    Опубликовал: Админ | Дата: 25-04-2016, 04:00 | Просмотров: 47

    Производство: Испания, Nostromo Pictures, Atresmedia Cine, Dynamo, Telefonica Studios, Warner Bros. О таком странном сюжете не догадывалась даже Анастасия Стоцкая. Pictures International
    Жанр: Драма, Мелодрама
    Режиссер: Фернандо Гонзалез Молина

    Актеры
    Марио Касас, Лайа Коста, Адриана Угарте, Макарена Гарсия, Ален Эрнандес, Берта Васкес, Джедже Апали, Даниэль Грао, Фернандо Кайо, Сельсо Бугальо, Петра Мартинес, Луис Кальехо, Хосе Мануэль Ривера и другие.

    Описание

    Это история о большой любви, связи времен и поколений. Красавица Кларенс живет в холодных горах. Однажды она находит загадочное письмо и решает узнать правду о прошлом своего отца. Девушка отправляется на остров Фернандо-По и как будто попадает в рай. Она идет по следам семейных тайн, где есть и запретная любовь, и предательство, и великие события, ставшие частью мировой истории.

    Премьера (мир): 9 декабря 2015
    Премьера (РФ): 7 апреля 2016, Capella Film

    Продолжительность: 02: 44: 02
    Качество видео: BDRip 1080p (USURY)
    Перевод: Профессиональный (многоголосый, закадровый) (Чистый звук)
    Язык субтитров: Английский
    Вид субтитров: Вшитые отключаемые
    Видео: AVC/H.264, 1920x808 (2.40: 1), 23.976 fps, 9 020 Kbps (0.243 bit/pixel)
    Аудио #1: АС3, 48.0 KHz, 2 ch, 384 Kbps, CBR (Русский)
    Аудио #2: DTS, 48.0 KHz, 6 ch, 1 510 Kbps, CBR (Испанский)
    Код:

    General
    Unique ID : 208781953404710182828754885865693300801 (0x9D11F10C1B3DD9D89BDEBF2491CCC841)
    Название : H:Palm.Trees.in.the.Snow.2015.BDRip.1080p.mkv
    Формат : Matroska
    Формат version : Version 4/Version 2
    Размер файла : 12.5 GiB
    Длительность : 2h 44mn
    Общий Битрейт : 10.9 Mbps
    Movie name : Palmeras en la nieve (2015) BDRip 1080p
    Encoded date : UTC 2016-04-24 07:31:48
    Создано приложением : mkvmerge v9.1.0 (\'Little Earthquakes\') 64bit
    Writing library : libebml v1.3.3 + libmatroska v1.4.4
    Длительность : 02:31:26.369000000
    NUMBER_OF_FRAMES : 1382
    NUMBER_OF_BYTES : 46231
    _STATISTICS_WRITING_APP : mkvmerge v9.1.0 (\'Little Earthquakes\') 64bit
    _STATISTICS_WRITING_DATE_UTC : 2016-04-24 07:31:48
    _STATISTICS_TAGS : BPS Длительность NUMBER_OF_FRAMES NUMBER_OF_BYTES
    Video
    ID : 1
    Формат : AVC
    Формат/Info : Advanced Video Кодек
    Формат profile :High@L4.1
    Формат настройки, CABAC : Yes
    Формат настройки, ReFrames : 5 frames
    Кодек ID : V_MPEG4/ISO/AVC
    Длительность : 2h 44mn
    Битрейт : 9 020 Kbps
    Width : 1 920 пикселей
    Высота : 808 пикселей
    Соотношение кадра : 2.40:1
    Частота кадров : 23.976 fps
    Цветопередача : YUV
    Chroma subsampling : 4:2:0
    Разрядность : 8 bits
    Тип сканирования : Progressive
    Bits/(Pixel*Frame) : 0.243
    Размер потока : 10.0 GiB (81%)
    Writing library : x264 core 148 r2665 a01e339
    Encoding настройки : cabac=1/ref=5/deblock=1:0:0/analyse=0x3:0x133/me=umh/subme=7/psy=1/psy_rd=1.00:0.00/mixed_ref=1/me_range=16/chroma_me=1/trellis=1/8x8dct=1/cqm=0/deadzone=21, 11/fast_pskip=0/chroma_qp_offset=-2/threads=18/lookahead_threads=3/sliced_threads=0/nr=0/decimate=1/interlaced=0/bluray_compat=0/constrained_intra=0/bframes=3/b_pyramid=2/b_adapt=2/b_bias=0/direct=3/weightb=1/open_gop=0/weightp=2/keyint=250/keyint_min=23/scenecut=40/intra_refresh=0/rc_lookahead=50/rc=2pass/mbtree=1/bitrate=9020/ratetol=1.0/qcomp=0.60/qpmin=0/qpmax=69/qpstep=4/cplxblur=20.0/qblur=0.5/ip_ratio=1.40/aq=1:1.00
    Язык : English
    Default : Yes
    Forced : No
    Длительность : 02:43:15.093000000
    NUMBER_OF_FRAMES : 234847
    NUMBER_OF_BYTES : 11043790995
    _STATISTICS_WRITING_APP : mkvmerge v9.1.0 (\'Little Earthquakes\') 64bit
    _STATISTICS_WRITING_DATE_UTC : 2016-04-24 07:31:48
    _STATISTICS_TAGS : BPS Длительность NUMBER_OF_FRAMES NUMBER_OF_BYTES
    Audio #1
    ID : 2
    Формат : AC-3
    Формат/Info : Audio Coding 3
    Расширение режима : CM (complete main)
    Кодек ID : A_AC3
    Длительность : 2h 44mn
    Битрейт mode : Constant
    Битрейт : 384 Kbps
    Channel(s) : 2 канала
    Channel positions : Front: L R
    Частота : 48.0 KHz
    Разрядность : 16 bits
    Режим сжатия : Lossy
    Размер потока : 451 MiB (4%)
    Title : MVO [Line]
    Язык : Russian
    Default : Yes
    Forced : No
    Audio #2
    ID : 3
    Формат : DTS
    Формат/Info : Digital Theater Systems
    Кодек ID : A_DTS
    Длительность : 2h 44mn
    Битрейт mode : Constant
    Битрейт : 1 510 Kbps
    Channel(s) : 6 каналов
    Channel positions : Front: L C R, Side: L R, LFE
    Частота : 48.0 KHz
    Разрядность : 24 bits
    Режим сжатия : Lossy
    Размер потока : 1.73 GiB (14%)
    Title : Оригинал
    Язык : Spanish
    Default : No
    Forced : No
    Text
    ID : 4
    Формат : UTF-8
    Кодек ID : S_TEXT/UTF8
    Кодек ID/Info : UTF-8 Plain Text
    Title : forced
    Язык : English
    Default : No
    Forced : No
    Menu
    00:00:00.000 : en:00:00:00.000
    00:09:42.373 : en:00:09:42.373
    00:22:57.334 : en:00:22:57.334
    00:33:35.472 : en:00:33:35.472
    00:43:04.290 : en:00:43:04.290
    00:54:21.967 : en:00:54:21.967
    01:02:52.394 : en:01:02:52.394
    01:13:23.816 : en:01:13:23.816
    01:26:05.118 : en:01:26:05.118
    01:42:58.214 : en:01:42:58.214
    01:53:23.630 : en:01:53:23.630
    02:07:47.994 : en:02:07:47.994
    02:20:08.900 : en:02:20:08.900
    02:32:35.313 : en:02:32:35.313
    02:37:43.204 : en:02:37:43.204


    Скриншоты для ознакомления




    Онлайн видео Пальмы в снегу



    Пальмы в снегу/Palmeras en la nieve (2015) BDRip [H.264/1080p] [Line]
    загрузка...
    Рейтинг →
     (голосов: 1, оценка 3/5, голосовать можно 1 раз )

    Другие торренты по теме:

  • Пальмы в снегу / Palmeras en la nieve (2015) BDRip [H.264 / 1080p] [SP / En Sub]
  • Пальмы в снегу / Palmeras en la nieve (2015) BDRemux [H.264 / 1080p]
  • Пальмы в снегу / Palmeras en la nieve (2015) BDRip [H.264 / 1080p]
  • Пальмы в снегу / Palmeras en la nieve (2015) HDRip [H.264]


    • Комментарии (0):

      Информация

      Информация

        Посетители, находящиеся в группе Гости, не могут оставлять комментарии в данной новости.

        ↓ Меню




        ↓ Опрос

        Вы добавили сайт в закладки?
        Да
        Нет


        Top 10 за месяц (Фильмы)