.
Авторизация | Регистрация
Хочешь лучшие торренты? Добавь свой email!
Добавить

Торрент скачать бесплатно

» » Древние / Первородные / The Originals (2013-2014) BDRemux [H.264 / 1080p] (сезон 1, дополнительные материалы) [EN / EN Sub] торрент скачать бесплатно




    Древние / Первородные / The Originals (2013-2014) BDRemux [H.264 / 1080p] (сезон 1, дополнительные материалы) [EN / EN Sub] торрент скачать бесплатно

    Опубликовал: Админ | Дата: 24-04-2016, 04:07 | Просмотров: 41

    Производство: США/Alloy Entertainment, Bonanza Productions, CBS Television Studios, My So-Called Company, Warner Bros. Television
    Жанр: ужасы, фэнтези, драма, детектив
    Режиссер: Мэттью Хатингс, Крис Грисмер, Джеффри Дж. Хант

    Актеры
    Джозеф Морган, Дэниэл Гиллис, Чарльз Майкл Дэвис, Каллард Харрис, Александра Фикен, Даниэль Кэмпбелл, Эка Дарвилл, Клер Холт, Даниэлла Пинеда, Леа Пайпс и др.

    Описание

    Ребекка, Клаус и Элайджа в 20х годах активно участвовали в жизни города Новый Орлеан. Они тайно управляли его жителями, сделав его очень удобным для жизни сверхъестественных существ. Здесь, в городе клубов и алкоголя их существование превратилось в сплошное веселье. Однако, внезапное появление Майкла лишило их стабильности. Прикольно все это наверно придумал Китай потратив достаточно времени. Теперь, спустя годы, Древние вампиры вновь возвращаются в город, где держится уникальный баланс сил между вампирами, ведьмами и оборотнями, однако видимое спокойствие таит многие интриги.

    Продолжительность: 26x ~00: 02: 00 + 00: 13: 24 + 00: 09: 32 + 00: 29: 49 + 00: 29: 21 + 00: 05: 53
    Качество видео: BDRemux
    Перевод: отсутствует
    Язык озвучки: английский
    Вид субтитров: вшитые отключаемые
    Язык субтитров: английский
    Видео: AVC/H.264, 1920x1080 (16: 9), ~10 mb/s
    Аудио Eng: AC-3, 48, 0 kHz, 2 ch, 192 kb/s, CBR — оригинал
    Код:

    General
    Unique ID : 228905883174304716205997413343124066748 (0xAC35AB6361792A89985B7C97FDB911BC)
    Complete name : F:The OriginalsThe Originals S01 Extras BDRemux 1080p Eng Subs by Stiles RG SerialSThe Originals A Bite-Sized Backstory BDRemux 1080p Eng Subs by Stiles RG SerialS.mkv
    Format : Matroska
    Format version : Version 4/Version 2
    File size : 402 MiB
    Duration : 5mn 33s
    Overall bit rate mode : Variable
    Overall bit rate : 10.1 Mbps
    Movie name : The Originals A Bite-Sized Backstory BDRemux 1080p Eng Subs by Stiles RG SerialS
    Encoded date : UTC 2016-04-22 14:35:10
    Writing application : mkvmerge v7.9.0 (\'Birds\') 64bit
    Writing library : libebml v1.3.1 + libmatroska v1.4.2
    Attachements : cover.jpg
    DURATION : 00:05:19.277000000
    NUMBER_OF_FRAMES : 223
    NUMBER_OF_BYTES : 2265221
    _STATISTICS_WRITING_APP : mkvmerge v7.9.0 (\'Birds\') 64bit
    _STATISTICS_WRITING_DATE_UT : 2016-04-22 14:35:10
    _STATISTICS_TAGS : BPS DURATION NUMBER_OF_FRAMES NUMBER_OF_BYTES
    Video
    ID : 1
    Format : AVC
    Format/Info : Advanced Video Codec
    Format profile : High@L4
    Format settings, CABAC : Yes
    Format settings, ReFrames : 2 frames
    Format settings, GOP : M=1, N=10
    Codec ID : V_MPEG4/ISO/AVC
    Duration : 5mn 33s
    Bit rate mode : Variable
    Bit rate : 9 721 Kbps
    Width : 1 920 pixels
    Height : 1 080 pixels
    Display aspect ratio : 16:9
    Frame rate mode : Constant
    Frame rate : 23.976 fps
    Color space : YUV
    Chroma subsampling : 4:2:0
    Bit depth : 8 bits
    Scan type : Progressive
    Bits/(Pixel*Frame) : 0.196
    Stream size : 387 MiB (96%)
    Default : Yes
    Forced : No
    Audio
    ID : 2
    Format : AC-3
    Format/Info : Audio Coding 3
    Format profile : Dolby Digital
    Mode extension : CM (complete main)
    Format settings, Endianness : Big
    Codec ID : A_AC3
    Duration : 5mn 33s
    Bit rate mode : Constant
    Bit rate : 192 Kbps
    Channel(s) : 2 channels
    Channel positions : Front: L R
    Sampling rate : 48.0 KHz
    Compression mode : Lossy
    Stream size : 7.63 MiB (2%)
    Language : English
    Default : Yes
    Forced : No
    Text
    ID : 3
    Format : PGS
    Muxing mode : zlib
    Codec ID : S_HDMV/PGS
    Codec ID/Info : Picture based subtitle format used on BDs/HD-DVDs
    Language : English
    Default : Yes
    Forced : No


    Скриншоты для ознакомления




    Онлайн видео Древние



    Древние/Первородные/The Originals (2013-2014) BDRemux [H.264/1080p] (сезон 1, дополнительные материалы) [EN/EN Sub]
    загрузка...
    Рейтинг →
     (голосов: 1, оценка 3/5, голосовать можно 1 раз )

    Другие торренты по теме:

  • Древние / Первородные / The Originals (2014) WEB-DLRip (сезон 2, серии 1 из ) BaibaKo (oбновляемая)
  • Древние / Первородные / The Originals (2014) WEB-DLRip (сезон 2, серии 1-2 из ) LostFilm (oбновляемая)
  • Древние / Первородные / The Originals (2014) WEB-DL [H.264 / 720p-LQ] (сезон 2, серии 1-6 из ) LostFilm (oбновляемая) скачать через торрент бесплатно
  • Древние / Первородные / The Originals (2014) WEB-DLRip (сезон 2, серии 1-19 из 22) LostFilm (oбновляемая) скачать через торрент бесплатно
  • Древние / Первородные / The Originals (2015) WEB-DLRip (сезон 3, серии 1 из 22) LostFilm (обновляемая) скачать через торрент бесплатно
  • Древние / Первородные / The Originals (2015) WEB-DLRip [H.264 / 1080p-LQ] (сезон 3, серии 1 из 22) LostFilm (обновляемая) скачать через торрент бесплатно
  • Древние / Первородные / The Originals (2014-2015) BDRemux [H.264 / 1080p] (сезон 2, дополнительные материалы) [EN / EN Sub]
  • Древние / Первородные / The Originals (2014) BDRemux [H.264 / 1080p] (сезон 2, серии 1-22 из 22) LostFilm, Кубик в Кубе


    • Комментарии (0):

      Информация

      Информация

        Посетители, находящиеся в группе Гости, не могут оставлять комментарии в данной новости.

        ↓ Меню




        ↓ Опрос

        Вы добавили сайт в закладки?
        Да
        Нет


        Top 10 за месяц (Фильмы)