.
Авторизация | Регистрация
Хочешь лучшие торренты? Добавь свой email!
Добавить

Торрент скачать бесплатно

» » Снайпер: Специальный отряд / Sniper: Special Ops (2016) DVDRip [EN] торрент скачать бесплатно




    Снайпер: Специальный отряд / Sniper: Special Ops (2016) DVDRip [EN] торрент скачать бесплатно

    Опубликовал: Админ | Дата: 24-04-2016, 04:00 | Просмотров: 52

    Производство: США, Hybrid, Steamroller Productions
    Жанр: Драма, Военный
    Режиссер: Фред Олен Рэй

    Актеры
    Стивен Сигал, Роб Ван Дам, Тим Эбелл, Дейл Дай, Шарлин Амойя, Джейсон-Шейн Скотт, Дэниэл Буко, Энтони Батарсе, Джералд Уэбб, Пол Логан

    Описание

    Специальный отряд вооруженных сил, во главе с опытным снайпером сержантом Джейком Чандлером, отправляются в захолустную афганскую деревню, чтобы освободить американского конгрессмена удерживаемого талибами. Спасительная миссия увенчалась успехом, но Джейк, отрезанный после перестрелки с врагом, остается, чтобы помочь раненным солдатам.

    Рейтинг MPAA: R (лицам до 17 лет обязательно присутствие взрослого)
    Дата выхода DVD/Blu-ray релиза: 3 May 2016 (USA)
    Продолжительность: 01: 26: 25
    Качество видео: DVDRip
    Перевод: Отсутствует
    Язык озвучки: Английский
    Видео: Xvid, 720x400, ~1 796 Kbps
    Аудио: AC3, 6 ch, 448 Kbps, CBR
    Код:

    General
    Complete name : Sniper.Special.Ops.2016.DVDRip.XviD.AC3.avi
    Format : AVI
    Format/Info : Audio Video Interleave
    File size : 1.36 GiB
    Duration : 1h 26mn
    Overall bit rate : 2 253 Kbps
    Writing library : VirtualDub build 32593/release
    Video
    ID : 0
    Format : MPEG-4 Visual
    Format profile : Advanced Simple@L5
    Format settings, BVOP : 2
    Format settings, QPel : No
    Format settings, GMC : No warppoints
    Format settings, Matrix : Default (H.263)
    Muxing mode : Packed bitstream
    Codec ID : XVID
    Codec ID/Hint : XviD
    Duration : 1h 26mn
    Bit rate : 1 796 Kbps
    Width : 720 pixels
    Height : 400 pixels
    Display aspect ratio : 16:9
    Frame rate : 23.976 (24000/1001) fps
    Color space : YUV
    Chroma subsampling : 4:2:0
    Bit depth : 8 bits
    Scan type : Progressive
    Compression mode : Lossy
    Bits/(Pixel*Frame) : 0.260
    Stream size : 1.08 GiB (80%)
    Writing library : XviD 66
    Audio
    ID : 1
    Format : AC-3
    Format/Info : Audio Coding 3
    Mode extension : CM (complete main)
    Format settings, Endianness : Big
    Codec ID : 2000
    Duration : 1h 26mn
    Bit rate mode : Constant
    Bit rate : 448 Kbps
    Channel(s) : 6 channels
    Channel positions : Front: L C R, Side: L R, LFE
    Sampling rate : 48.0 KHz
    Frame rate : 31.250 fps (1536 spf)
    Compression mode : Lossy
    Stream size : 277 MiB (20%)
    Alignment : Split accross interleaves
    Interleave, duration : 42 ms (1.00 video frame)
    Interleave, preload duration : 500 ms

    Скриншоты для ознакомления



    Время раздачи: 24/7 до 3-х скачмваний (до появления первых 3-5 скачавших)

    Снайпер: Специальный отряд/Sniper: Special Ops (2016) DVDRip [EN]
    загрузка...
    Рейтинг →
     (голосов: 1, оценка 4/5, голосовать можно 1 раз )

    Другие торренты по теме:

  • Снайпер: Специальный отряд / Sniper: Special Ops (2016) WEB-DL [H.264 / 1080p-LQ] [EN]
  • Снайпер: Специальный отряд / Sniper: Special Ops (2016) WEB-DLRip
  • Снайпер: Специальный отряд / Sniper: Special Ops (2016) WEB-DL [H.264 / 720p-LQ]
  • Снайпер: Специальный отряд / Sniper: Special Ops (2016) WEB-DL [H.264 / 1080p-LQ]


    • Комментарии (0):

      Информация

      Информация

        Посетители, находящиеся в группе Гости, не могут оставлять комментарии в данной новости.

        ↓ Меню




        ↓ Опрос

        Вы добавили сайт в закладки?
        Да
        Нет


        Top 10 за месяц (Фильмы)