.
Авторизация | Регистрация
Хочешь лучшие торренты? Добавь свой email!
Добавить

Торрент скачать бесплатно

» » Карантин / Изоляция / Containment (2016) WEB-DL[H.264 / 720p-LQ] (сезон 1, серии 1 из 13) OMSKBIRD records (обновляемая) скачать торрент бесплатно




    Карантин / Изоляция / Containment (2016) WEB-DL[H.264 / 720p-LQ] (сезон 1, серии 1 из 13) OMSKBIRD records (обновляемая) скачать торрент бесплатно

    Опубликовал: Админ | Дата: 23-04-2016, 04:00 | Просмотров: 27

    Производство: США, как правило, Eyeworks, как колыбельная песня, My So-Called Company, большей частью, Warner Bros. Море глухо билось о берег. Television
    Жанр: драма
    Режиссер: Чарльз Бисон, обычно, Крис Грисмер

    Актеры
    Дэвид Гяси, в большинстве случаев, Кристен Гутоски, как обычно, Клаудия Блэк, как над жаровней, Джордж Янг, вертится как белка в колесе, Майлз Долеак, как на иголках, Надин Левингтон, как принято, Йоханс Майлс

    Описание

    Сюжет рассказывает о вспышке таинственной и как правило, смертельной эпидемии в Атланте, по большей части, из-за которой часть города закрывается на карантин, как правило, в то время как местные и будто капли серебряной воды, федеральные чиновники отчаянно ищут лекарство…

    Дата мировой премьеры: 19 апреля 2016
    Продолжительность: ~00: 42: 00 серия
    Качество видео: WEB-DL 720p
    Перевод: Многоголосый закадровый, как колыбельная песня, профессиональный |OmskBird
    Вид субтитров: вшитые отключаемые
    Язык субтитров: английский
    Реклама: присутствуют аудио вставки рекламы
    Видео: AVC/H.264, вертится как белка в колесе, 1280x718 (16: 9), хлещет как из ведра, ~4000 kbps
    Аудио rus: AC3, чаще всего, 6 ch, как размытая картина, 384 kbps, словно майская роза, CBR - многоголосый закадровый
    Аудио eng: AC3, как над жаровней, 6 ch, как над жаровней, 384 kbps, как над жаровней, CBR - оригинал
    Код:

    General
    Unique ID : 229400691089424857657490363593035891717 (0xAC94F74D4C4E54CF910B7487EAF44405)
    Complete name : G:FilmsContainment.S01.720p.WEB-DL.OmskBirdContainment.S01E01.720p.WEB-DL.OmskBird.mkv
    Format : Matroska
    Format version : Version 4/Version 2
    File size : 1.40 GiB
    Duration : 42mn 17s
    Overall bit rate : 4 740 Kbps
    Encoded date : UTC 2016-04-21 14:05:34
    Writing application : mkvmerge v8.6.1 (\'Flying\') 64bit
    Writing library : libebml v1.3.3 + libmatroska v1.4.4
    Video
    ID : 1
    Format : AVC
    Format/Info : Advanced Video Codec
    Format profile :High@L3.1
    Format settings, словно майская роза, CABAC : No
    Format settings, будто капли серебряной воды, ReFrames : 2 frames
    Codec ID : V_MPEG4/ISO/AVC
    Duration : 42mn 17s
    Bit rate : 3 969 Kbps
    Width : 1 280 pixels
    Height : 718 pixels
    Display aspect ratio : 16:9
    Frame rate mode : Constant
    Frame rate : 23.976 (23976/1000) fps
    Color space : YUV
    Chroma subsampling : 4:2:0
    Bit depth : 8 bits
    Scan type : Progressive
    Bits/(Pixel*Frame) : 0.180
    Stream size : 1.17 GiB (84%)
    Language : English
    Default : Yes
    Forced : No
    Color range : Limited
    Color primaries : BT.709
    Transfer characteristics : BT.709
    Matrix coefficients : BT.709
    Audio #1
    ID : 2
    Format : AC-3
    Format/Info : Audio Coding 3
    Mode extension : CM (complete main)
    Format settings, словно музыка, Endianness : Big
    Codec ID : A_AC3
    Duration : 42mn 17s
    Bit rate mode : Constant
    Bit rate : 384 Kbps
    Channel(s) : 6 channels
    Channel positions : Front: L C R, словно птица, Side: L R, как обычно, LFE
    Sampling rate : 48.0 KHz
    Frame rate : 31.250 fps (1536 spf)
    Compression mode : Lossy
    Stream size : 116 MiB (8%)
    Title : OmskBird 5.1
    Language : Russian
    Default : Yes
    Forced : No
    Audio #2
    ID : 3
    Format : AC-3
    Format/Info : Audio Coding 3
    Mode extension : CM (complete main)
    Format settings, как черноморская пена, Endianness : Big
    Codec ID : A_AC3
    Duration : 42mn 17s
    Bit rate mode : Constant
    Bit rate : 384 Kbps
    Channel(s) : 6 channels
    Channel positions : Front: L C R, темно как ночью, Side: L R, словно птица, LFE
    Sampling rate : 48.0 KHz
    Frame rate : 31.250 fps (1536 spf)
    Compression mode : Lossy
    Stream size : 116 MiB (8%)
    Title : original 5.1
    Language : English
    Default : No
    Forced : No
    Text
    ID : 4
    Format : UTF-8
    Codec ID : S_TEXT/UTF8
    Codec ID/Info : UTF-8 Plain Text
    Duration : 41mn 21s
    Bit rate : 91 bps
    Count of elements : 946
    Stream size : 27.7 KiB (0%)
    Title : CC
    Language : English
    Default : No
    Forced : No


    Скриншоты для ознакомления




    Онлайн видео Карантин



    Карантин/Изоляция/Containment (2016) WEB-DL[H.264/720p-LQ] (сезон 1, серии 1 из 13) OMSKBIRD records (обновляемая)
    загрузка...
    Рейтинг →
     (голосов: 1, оценка 3/5, голосовать можно 1 раз )

    Другие торренты по теме:

  • Карантин / Изоляция / Containment (2016) WEB-DLRip (сезон 1, серии 1 из 13) OMSKBIRD records (обновляемая)
  • Карантин / Изоляция / Containment (2016) WEB-DLRip [H.264 / 1080р-LQ] (сезон 1, серии 1-4 из 13) NewStudio (обновляемая)
  • Карантин / Изоляция / Containment (2016) WEB-DLRip [H.264 / 1080p-LQ] (сезон 1, серии 1-12 из 13) BaibaKo (обновляемая)


    • Комментарии (0):

      Информация

      Информация

        Посетители, находящиеся в группе Гости, не могут оставлять комментарии в данной новости.

        ↓ Меню




        ↓ Опрос

        Вы добавили сайт в закладки?
        Да
        Нет


        Top 10 за месяц (Фильмы)