.
Авторизация | Регистрация
Хочешь лучшие торренты? Добавь свой email!
Добавить

Торрент скачать бесплатно

» » Последний москаль. Судный День / Останній моcкаль. Судний День (2016) WEB-DLRip (сезон 2, серии 1-8 из 16) (обновляемая) торрент скачать бесплатно




    Последний москаль. Судный День / Останній моcкаль. Судний День (2016) WEB-DLRip (сезон 2, серии 1-8 из 16) (обновляемая) торрент скачать бесплатно

    Опубликовал: Админ | Дата: 23-04-2016, 04:00 | Просмотров: 14

    Производство: Украина/1+1 Production
    Жанр: мелодрама, комедия
    Режиссер: Семен Горов

    Актеры
    Игорь Скрипко, Юрий Горбунов, Владимир Горянский, Назар Заднепровский, Владимир Николаенко, Наталья Корецкая, Галина Безрук

    Описание

    Во втором сезон любимого сериалае Карпаты содрогнутся — их ждет скандальное возвращение блудного гуцула, брата Ивана и отца Валеры, Дмитрия Петрука. Предприимчивый олигарх, заручившись поддержкой Валеры, планирует построить в Великих Вуйках современный мегаприбыльный курорт Вуйковель. Правда, для постройки придется сравнять с полониной все село… Ошарашенные таким поворотом жители объединяются против варварского бизнес-плана. Но дьявольская сделка заключена, и бульдозеры уже тронулись с места…

    Дата премьеры в России: 18 апреля 2016
    Продолжительность: ~00: 25: 00 серия
    Качество видео: WEB-DLRip
    Видео: XVID, 720x400 (16: 9), ~1800 Kbps
    Аудио: AC3, 2 ch, 192 Kbps, CBR
    Код:
    Общее
    Полное имя : F:DOWNLOADSПоследний москаль. Судный День (Останній моcкаль. Судний День) (2 сезон любимого сериала) (2016) WEB-DLRipПоследний москаль. Судный День - 01 серия.avi
    Формат : AVI
    Формат/Информация : Audio Video Interleave
    Размер файла : 373 Мбайт
    Продолжительность : 26 м.
    Общий поток : 2002 Кбит/сек
    Программа кодирования : VirtualDubMod 1.5.10.3 |www.virtualdub-fr.org|| (build 2550/release)
    Библиотека кодирования : VirtualDubMod build 2550/release
    Видео
    Идентификатор : 0
    Формат : MPEG-4 Visual
    Профиль формата : Advanced Simple@L5
    Параметр BVOP формата : 1
    Параметр QPel формата : Нет
    Параметр GMC формата : Без точки перехода
    Параметр матрицы формата : Default (MPEG)
    Идентификатор кодека : XVID
    Идентификатор кодека/Подсказка : XviD
    Продолжительность : 26 м.
    Битрейт : 1800 Кбит/сек
    Ширина : 720 пикселей
    Высота : 400 пикселей
    Соотношение сторон : 16:9
    Частота кадров : 25, 000 кадров/сек
    Цветовое пространство : YUV
    Субдискретизация насыщенности : 4:2:0
    Битовая глубина : 8 бит
    Тип развёртки : Прогрессивная
    Метод сжатия : С потерями
    Бит/(Пиксели*Кадры) : 0.250
    Размер потока : 335 Мбайт (90%)
    Библиотека кодирования : XviD 73
    Аудио
    Идентификатор : 1
    Формат : AC-3
    Формат/Информация : Audio Coding 3
    Расширение режима : CM (complete main)
    Параметр Endianness формата : Big
    Идентификатор кодека : 2000
    Продолжительность : 26 м.
    Вид битрейта : Постоянный
    Битрейт : 192 Кбит/сек
    Каналы : 2 канала
    Расположение каналов : Front: L R
    Частота : 44, 1 КГц
    Частота кадров : 28, 711 кадров/сек (1536 spf)
    Метод сжатия : С потерями
    Размер потока : 35, 8 Мбайт (10%)
    Выравнивание : Разделение по промежуткам
    Продолжительность промежутка : 40 мс. (1, 00 видеокадр)
    Время предзагрузки промежутка : 500 мс.


    Скриншоты для ознакомления




    Онлайн видео Последний москаль. Судный День



    Последний москаль. Судный День/Останній моcкаль. Судний День (2016) WEB-DLRip (сезон 2, серии 1-8 из 16) (обновляемая)
    загрузка...
    Рейтинг →
     (голосов: 1, оценка 3/5, голосовать можно 1 раз )

    Другие торренты по теме:

  • Последний москаль. Судный День / Останній моcкаль. Судний День (2016) WEB-DLRip [H.264 / 720p-LQ] (сезон 2, серии 1-8 из 16) (обновляемая)
  • Последний москаль / Останній моcкаль (2014) WEB-DLRip [H.264 / 720p-LQ] (сезон 1, серии 1-16 из 16)
  • Последний москаль / Останній моcкаль (2014) WEB-DLRip [H.264 / 1080p-LQ] (сезон 1, серии 1-16 из 16)
  • Последний москаль. Судный День / Останній моcкаль. Судний День (2016) WEB-DLRip [H.264 / 1080p-LQ] (сезон 2, серии 1-8 из 16) (обновляемая)
  • Последний москаль / Останній моcкаль (2014) WEB-DLRip (сезон 1, серии 1-16 из 16)


    • Комментарии (0):

      Информация

      Информация

        Посетители, находящиеся в группе Гости, не могут оставлять комментарии в данной новости.

        ↓ Меню




        ↓ Опрос

        Вы добавили сайт в закладки?
        Да
        Нет


        Top 10 за месяц (Фильмы)