.
Авторизация | Регистрация
Хочешь лучшие торренты? Добавь свой email!
Добавить

Торрент скачать бесплатно

» » Полицейский-самурай 2: Смертельная месть / Samurai Cop 2: Deadly Vengeance (2015) HDRip торрент скачать бесплатно




    Полицейский-самурай 2: Смертельная месть / Samurai Cop 2: Deadly Vengeance (2015) HDRip торрент скачать бесплатно

    Опубликовал: Админ | Дата: 23-04-2016, 04:00 | Просмотров: 8

    Производство: США, CineRidge Entertainment, Epoch Entertainment
    Жанр: Боевик, триллер, криминал
    Режиссер: Грегори Хатанака

    Актеры
    Мэтью Каредас, Марк Фрейзер, Бай Лин, Кэйден Кросс, Томми Вайсо, Крэнстон Комуро, Лаурен Лэндон, Мелисса Мур, Мел Новак, Лекси Белль

    Описание

    Ровно 25 лет назад в городе произошла череда странных и загадочных убийств, расследовать которые так и не удалось. Но теперь, спустя столько лет, полицейский Фрэнк Вашингтон решает возобновить те самые расследования, использовать имеющиеся данные и попробовать все-таки раскрыть загадочные дела. Помогать в расследовании Фрэнку будет его старый напарник Джо Маршал. Друзья уверенны, что к делу каким-то образом причастны местные власти, полицейские и воры, вышедшие накануне на свободу.

    Дата мировой премьеры: 9 октября 2015
    Продолжительность: 01: 33: 42
    Качество видео: HDRip
    Перевод: Любительский одноголосый (Хихидок)
    Субтитры: Отсутствуют
    Реклама: Присутствуют вставки голосовой и текстовой рекламы.
    Видео: MPEG4, XviD, 720x304 (2.35: 1), 23.976 fps, 1 823 Kbps (0.347 bit/pixel)
    Аудио: AC-3, 48.0 KHz, 2 ch, 192 Kbps, CBR - русский
    Аудио: AC-3, 48.0 KHz, 2 ch, 192 Kbps, CBR - английский
    Код:

    Формат : AVI
    Формат/Информация : Audio Video Interleave
    Размер файла : 1, 45 Гбайт
    Продолжительность : 1 ч. 33 м.
    Общий поток : 2222 Кбит/сек
    Программа кодирования : VirtualDubMod 1.5.10.3 |www.virtualdub-fr.org|| (build 2550/release)
    Библиотека кодирования : VirtualDubMod build 2550/release
    Видео
    Идентификатор : 0
    Формат : MPEG-4 Visual
    Профиль формата : Advanced Simple@L5
    Параметр BVOP формата : 1
    Параметр QPel формата : Нет
    Параметр GMC формата : Без точки перехода
    Параметр матрицы формата : Выборочная
    Идентификатор кодека : XVID
    Идентификатор кодека/Подсказка : XviD
    Продолжительность : 1 ч. 33 м.
    Битрейт : 1823 Кбит/сек
    Ширина : 720 пикселей
    Высота : 304 пикселя
    Соотношение сторон : 2, 35:1
    Частота кадров : 23, 976 кадра/сек
    Цветовое пространство : YUV
    Субдискретизация насыщенности : 4:2:0
    Битовая глубина : 8 бит
    Тип развёртки : Прогрессивная
    Метод сжатия : С потерями
    Бит/(Пиксели*Кадры) : 0.347
    Размер потока : 1, 19 Гбайт (82%)
    Библиотека кодирования : XviD 73
    Аудио #1
    Идентификатор : 1
    Формат : AC-3
    Формат/Информация : Audio Coding 3
    Расширение режима : CM (complete main)
    Параметр Endianness формата : Big
    Идентификатор кодека : 2000
    Продолжительность : 1 ч. 33 м.
    Вид битрейта : Постоянный
    Битрейт : 192 Кбит/сек
    Каналы : 2 канала
    Расположение каналов : Front: L R
    Частота : 48, 0 КГц
    Битовая глубина : 16 бит
    Метод сжатия : С потерями
    Размер потока : 129 Мбайт (9%)
    Выравнивание : Разделение по промежуткам
    Продолжительность промежутка : 42 мс. (1, 00 видеокадр)
    Время предзагрузки промежутка : 500 мс.
    Аудио #2
    Идентификатор : 2
    Формат : AC-3
    Формат/Информация : Audio Coding 3
    Расширение режима : CM (complete main)
    Параметр Endianness формата : Big
    Идентификатор кодека : 2000
    Продолжительность : 1 ч. 33 м.
    Вид битрейта : Постоянный
    Битрейт : 192 Кбит/сек
    Каналы : 2 канала
    Расположение каналов : Front: L R
    Частота : 48, 0 КГц
    Битовая глубина : 16 бит
    Метод сжатия : С потерями
    Размер потока : 129 Мбайт (9%)
    Выравнивание : Разделение по промежуткам
    Продолжительность промежутка : 42 мс. (1, 00 видеокадр)
    Время предзагрузки промежутка : 500 мс.


    Скриншоты для ознакомления




    Онлайн видео Полицейский-самурай 2: Смертельная месть



    Полицейский-самурай 2: Смертельная месть/Samurai Cop 2: Deadly Vengeance (2015) HDRip
    загрузка...
    Рейтинг →
     (голосов: 1, оценка 4/5, голосовать можно 1 раз )

    Другие торренты по теме:

  • Полицейский-самурай 2: Смертельная месть / Samurai Cop 2: Deadly Vengeance (2015) BDRip [H.264 / 720p] [VO]


    • Комментарии (0):

      Информация

      Информация

        Посетители, находящиеся в группе Гости, не могут оставлять комментарии в данной новости.

        ↓ Меню




        ↓ Опрос

        Вы добавили сайт в закладки?
        Да
        Нет


        Top 10 за месяц (Фильмы)