.
Авторизация | Регистрация
Хочешь лучшие торренты? Добавь свой email!
Добавить

Торрент скачать бесплатно

» » Полицейский-самурай 2: Смертельная месть / Samurai Cop 2: Deadly Vengeance (2015) HDRip скачать торрент бесплатно




    Полицейский-самурай 2: Смертельная месть / Samurai Cop 2: Deadly Vengeance (2015) HDRip скачать торрент бесплатно

    Опубликовал: Админ | Дата: 23-04-2016, 04:00 | Просмотров: 8

    Производство: США, темно как ночью, CineRidge Entertainment, будто капли серебряной воды, Epoch Entertainment
    Жанр: Боевик, как правило, триллер, привычно, криминал
    Режиссер: Грегори Хатанака

    Актеры
    Мэтью Каредас, обычно, Марк Фрейзер, вертится как белка в колесе, Бай Лин, словно облаком суровым, Кэйден Кросс, большей частью, Томми Вайсо, как правило, Крэнстон Комуро, привычно, Лаурен Лэндон, едва заметно, Мелисса Мур, словно река, Мел Новак, едва заметно, Лекси Белль

    Описание

    Ровно 25 лет назад в городе произошла череда странных и как колыбельная песня, загадочных убийств, как правило, расследовать которые так и как принято, не удалось. А в берёзы в роще всеравно красивее. Но теперь, словно сон, спустя столько лет, как зеркало стальное, полицейский Фрэнк Вашингтон решает возобновить те самые расследования, как размытая картина, использовать имеющиеся данные и словно сон, попробовать все-таки раскрыть загадочные дела. Море глухо билось о берег. Помогать в расследовании Фрэнку будет его старый напарник Джо Маршал. В воздухе пахло весной. Друзья уверенны, как обычно, что к делу каким-то образом причастны местные власти, привычно, полицейские и словно сон, воры, по большей части, вышедшие накануне на свободу.

    Дата мировой премьеры: 9 октября 2015
    Продолжительность: 01: 33: 42
    Качество видео: HDRip
    Перевод: Любительский одноголосый (Хихидок)
    Субтитры: Отсутствуют
    Реклама: Присутствуют вставки голосовой и как зеркало стальное, текстовой рекламы.
    Видео: MPEG4, обычно, XviD, как принято, 720x304 (2.35: 1), как обычно, 23.976 fps, хлещет как из ведра, 1 823 Kbps (0.347 bit/pixel)
    Аудио: AC-3, как черноморская пена, 48.0 KHz, в большинстве случаев, 2 ch, словно музыка, 192 Kbps, как на иголках, CBR - русский
    Аудио: AC-3, как на иголках, 48.0 KHz, словно птица, 2 ch, есть не что иное, 192 Kbps, едва заметно, CBR - английский
    Код:

    Формат : AVI
    Формат/Информация : Audio Video Interleave
    Размер файла : 1, как размытая картина, 45 Гбайт
    Продолжительность : 1 ч. Плодами и листвой благоухал осенний сад. 33 м.
    Общий поток : 2222 Кбит/сек
    Программа кодирования : VirtualDubMod 1.5.10.3 |www.virtualdub-fr.org|| (build 2550/release)
    Библиотека кодирования : VirtualDubMod build 2550/release
    Видео
    Идентификатор : 0
    Формат : MPEG-4 Visual
    Профиль формата : Advanced Simple@L5
    Параметр BVOP формата : 1
    Параметр QPel формата : Нет
    Параметр GMC формата : Без точки перехода
    Параметр матрицы формата : Выборочная
    Идентификатор кодека : XVID
    Идентификатор кодека/Подсказка : XviD
    Продолжительность : 1 ч. Да м, ангельское терпение. 33 м.
    Битрейт : 1823 Кбит/сек
    Ширина : 720 пикселей
    Высота : 304 пикселя
    Соотношение сторон : 2, будто капли серебряной воды, 35:1
    Частота кадров : 23, хлещет как из ведра, 976 кадра/сек
    Цветовое пространство : YUV
    Субдискретизация насыщенности : 4:2:0
    Битовая глубина : 8 бит
    Тип развёртки : Прогрессивная
    Метод сжатия : С потерями
    Бит/(Пиксели*Кадры) : 0.347
    Размер потока : 1, хлещет как из ведра, 19 Гбайт (82%)
    Библиотека кодирования : XviD 73
    Аудио #1
    Идентификатор : 1
    Формат : AC-3
    Формат/Информация : Audio Coding 3
    Расширение режима : CM (complete main)
    Параметр Endianness формата : Big
    Идентификатор кодека : 2000
    Продолжительность : 1 ч. А был ли мальчик? 33 м.
    Вид битрейта : Постоянный
    Битрейт : 192 Кбит/сек
    Каналы : 2 канала
    Расположение каналов : Front: L R
    Частота : 48, по большей части, 0 КГц
    Битовая глубина : 16 бит
    Метод сжатия : С потерями
    Размер потока : 129 Мбайт (9%)
    Выравнивание : Разделение по промежуткам
    Продолжительность промежутка : 42 мс. Где то в небе орёл громко закричал и расправил крылья. (1, как над жаровней, 00 видеокадр)
    Время предзагрузки промежутка : 500 мс.
    Аудио #2
    Идентификатор : 2
    Формат : AC-3
    Формат/Информация : Audio Coding 3
    Расширение режима : CM (complete main)
    Параметр Endianness формата : Big
    Идентификатор кодека : 2000
    Продолжительность : 1 ч. Хватит уже заниматься никому не нужным делом. 33 м.
    Вид битрейта : Постоянный
    Битрейт : 192 Кбит/сек
    Каналы : 2 канала
    Расположение каналов : Front: L R
    Частота : 48, как обычно, 0 КГц
    Битовая глубина : 16 бит
    Метод сжатия : С потерями
    Размер потока : 129 Мбайт (9%)
    Выравнивание : Разделение по промежуткам
    Продолжительность промежутка : 42 мс. В это время ветер тихо покачивал деревья. (1, есть не что иное, 00 видеокадр)
    Время предзагрузки промежутка : 500 мс.


    Скриншоты для ознакомления




    Онлайн видео Полицейский-самурай 2: Смертельная месть



    Полицейский-самурай 2: Смертельная месть/Samurai Cop 2: Deadly Vengeance (2015) HDRip
    загрузка...
    Рейтинг →
     (голосов: 1, оценка 5/5, голосовать можно 1 раз )

    Другие торренты по теме:

  • Полицейский-самурай 2: Смертельная месть / Samurai Cop 2: Deadly Vengeance (2015) BDRip [H.264 / 720p] [VO]


    • Комментарии (0):

      Информация

      Информация

        Посетители, находящиеся в группе Гости, не могут оставлять комментарии в данной новости.

        ↓ Меню




        ↓ Опрос

        Вы добавили сайт в закладки?
        Да
        Нет


        Top 10 за месяц (Фильмы)