.
Авторизация | Регистрация
Хочешь лучшие торренты? Добавь свой email!
Добавить

Торрент скачать бесплатно

» » Вайнберг / Weinberg (2015) HDTVRip (сезон 1, серии 1 из 6) ViruseProject (обновляемая) торрент скачать бесплатно




    Вайнберг / Weinberg (2015) HDTVRip (сезон 1, серии 1 из 6) ViruseProject (обновляемая) торрент скачать бесплатно

    Опубликовал: Админ | Дата: 22-04-2016, 04:00 | Просмотров: 9

    Производство: Германия
    Жанр: триллер, драма, детектив
    Режиссер: Тилль Францен, Жан Мартин Шарф

    Актеры
    Фридрих Мюке, Гудрун Ландгребе, Антье Трауэ, Арвед Бирнбаум и др.

    Описание

    Среди гор, лесов и виноградников извиваясь течет река Ар, с трудом пробиваясь сквозь мистический туманный ландшафт. С давних времен в реке находят утопленников. О таком странном сюжете не догадывалась даже Волочкова. На склоне горы Вайнберг просыпается человек. Мужчина не знает, кто он, где он и как попал сюда. Божий одуванчик, сказал кто то из толпы, к чему не понятно. Рядом с ним, запутавшись в виноградных лозах, висит окровавленный труп молодой девушки. Он отправляется в близлежащую деревню за помощью. Однако по возвращении тело девушки исчезает. Немногим позже он узнает ее в лице королевы праздника вина, проходящего в деревне Кальтенцель в эти дни. По окончании праздника происходит убийство. Пытаясь найти ответы на мучащие его вопросы, мужчина все глубже погружается в тайны жителей этой архаичной общины.

    Продолжительность: ~00: 52: 00 серия
    Качество видео: HDTVRip
    Перевод: Многоголосый закадровый, профессиональный -ViruseProject
    Реклама: присутствует видео и аудио реклама
    Видео: Xvid, 720x400, ~1592 Kbps
    Аудио: MP3, 2 ch, 192 Kbps
    Код:

    General
    Complete name : C:UsersPublicVideosSample VideosWeinberg.S01.ViruseProjectWeinberg.S01E01.ViruseProject.avi
    Format : AVI
    Format/Info : Audio Video Interleave
    File size : 673 MiB
    Duration : 52mn 27s
    Overall bit rate : 1 794 Kbps
    Writing application : VirtualDubMod 1.5.10.2 (build 2540/release)
    Writing library : VirtualDubMod build 2540/release
    Video
    ID : 0
    Format : MPEG-4 Visual
    Format profile : Advanced Simple@L5
    Format settings, BVOP : 1
    Format settings, QPel : No
    Format settings, GMC : No warppoints
    Format settings, Matrix : Default (MPEG)
    Codec ID : XVID
    Codec ID/Hint : XviD
    Duration : 52mn 27s
    Bit rate : 1 592 Kbps
    Width : 720 pixels
    Height : 400 pixels
    Display aspect ratio : 16:9
    Frame rate : 25.000 fps
    Color space : YUV
    Chroma subsampling : 4:2:0
    Bit depth : 8 bits
    Scan type : Progressive
    Compression mode : Lossy
    Bits/(Pixel*Frame) : 0.221
    Stream size : 597 MiB (89%)
    Writing library : XviD 1.2.1 (UTC 2008-12-04)
    Audio
    ID : 1
    Format : MPEG Audio
    Format version : Version 1
    Format profile : Layer 3
    Mode : Joint stereo
    Mode extension : MS Stereo
    Codec ID : 55
    Codec ID/Hint : MP3
    Duration : 52mn 27s
    Bit rate mode : Constant
    Bit rate : 192 Kbps
    Channel(s) : 2 channels
    Sampling rate : 48.0 KHz
    Compression mode : Lossy
    Stream size : 72.0 MiB (11%)
    Alignment : Aligned on interleaves
    Interleave, duration : 40 ms (1.00 video frame)
    Interleave, preload duratio : 504 ms


    Скриншоты для ознакомления




    Онлайн видео Вайнберг



    Вайнберг/Weinberg (2015) HDTVRip (сезон 1, серии 1 из 6) ViruseProject (обновляемая)
    загрузка...
    Рейтинг →
     (голосов: 1, оценка 3/5, голосовать можно 1 раз )

    Другие торренты по теме:

  • Вайнберг / Weinberg (2015) HDTVRip [H.264 / 720p-LQ] (сезон 1, серии 1-6 из 6) ViruseProject (обновляемая)


    • Комментарии (0):

      Информация

      Информация

        Посетители, находящиеся в группе Гости, не могут оставлять комментарии в данной новости.

        ↓ Меню




        ↓ Опрос

        Вы добавили сайт в закладки?
        Да
        Нет


        Top 10 за месяц (Фильмы)