.
Авторизация | Регистрация
Хочешь лучшие торренты? Добавь свой email!
Добавить

Торрент скачать бесплатно

» » Последний москаль. Судный День / Останній моcкаль. Судний День (2016) WEB-DLRip [H.264 / 720p-LQ] (сезон 2, серии 1-8 из 16) (обновляемая) торрент скачать бесплатно




    Последний москаль. Судный День / Останній моcкаль. Судний День (2016) WEB-DLRip [H.264 / 720p-LQ] (сезон 2, серии 1-8 из 16) (обновляемая) торрент скачать бесплатно

    Опубликовал: Админ | Дата: 22-04-2016, 04:00 | Просмотров: 13

    Производство: Украина/1+1 Production
    Жанр: мелодрама, комедия
    Режиссер: Семен Горов

    Актеры
    Игорь Скрипко, Юрий Горбунов, Владимир Горянский, Назар Заднепровский, Владимир Николаенко, Наталья Корецкая, Галина Безрук

    Описание

    Во втором сезон любимого сериалае Карпаты содрогнутся — их ждет скандальное возвращение блудного гуцула, брата Ивана и отца Валеры, Дмитрия Петрука. Предприимчивый олигарх, заручившись поддержкой Валеры, планирует построить в Великих Вуйках современный мегаприбыльный курорт Вуйковель. Правда, для постройки придется сравнять с полониной все село… Ошарашенные таким поворотом жители объединяются против варварского бизнес-плана. Но дьявольская сделка заключена, и бульдозеры уже тронулись с места…

    Дата премьеры: 18 апреля 2016
    Продолжительность: ~00: 25: 00 серия
    Качество видео: WEB-DLRip
    Видео: AVC/H.264, 1280x720 (16: 9), ~1800 Kbps
    Аудио: AC3, 2 ch, 192 Kbps, CBR
    Код:
    Общее
    Уникальный идентификатор : 178104470187700587876766921300079629747 (0x85FDAC593806A0D0B79BB1D564FD55B3)
    Полное имя : F:DOWNLOADSПоследний москаль. Судный День (Останній моcкаль. Судний День) (2 сезон любимого сериала) (2016) WEB-DLRip 720Последний москаль. Судный День - 01 серия.mkv
    Формат : Matroska
    Версия формата : Version 2
    Размер файла : 371 Мбайт
    Продолжительность : 26 м.
    Режим общего битрейта : Переменный
    Общий поток : 1994 Кбит/сек
    Дата кодирования : UTC 2016-04-20 19:34:17
    Программа кодирования : mkvmerge v7.8.0 (\'River Man\') 32bit built on Apr 3 2015 12:11:22
    Библиотека кодирования : libebml v1.3.1 + libmatroska v1.4.2
    Видео
    Идентификатор : 1
    Формат : AVC
    Формат/Информация : Advanced Video Codec
    Профиль формата :High@L4.1
    Параметр CABAC формата : Да
    Параметр ReFrames формата : 3 кадра
    Идентификатор кодека : V_MPEG4/ISO/AVC
    Продолжительность : 26 м.
    Вид битрейта : Переменный
    Битрейт : 1800 Кбит/сек
    Максимальный битрейт : 40, 0 Мбит/сек
    Ширина : 1280 пикселей
    Высота : 720 пикселей
    Соотношение сторон : 16:9
    Режим частоты кадров : Постоянный
    Частота кадров : 25, 000 кадров/сек
    Цветовое пространство : YUV
    Субдискретизация насыщенности : 4:2:0
    Битовая глубина : 8 бит
    Тип развёртки : Прогрессивная
    Бит/(Пиксели*Кадры) : 0.078
    Размер потока : 328 Мбайт (88%)
    Библиотека кодирования : x264 core 142 r2389 956c8d8
    Настройки программы : cabac=1/ref=3/deblock=1:0:0/analyse=0x3:0x133/me=umh/subme=7/psy=1/psy_rd=1.00:0.00/mixed_ref=1/me_range=32/chroma_me=1/trellis=2/8x8dct=1/cqm=0/deadzone=21, 11/fast_pskip=1/chroma_qp_offset=-2/threads=12/lookahead_threads=2/sliced_threads=0/nr=0/decimate=1/interlaced=0/bluray_compat=0/constrained_intra=0/bframes=0/weightp=0/keyint=75/keyint_min=26/scenecut=40/intra_refresh=0/rc_lookahead=50/rc=2pass/mbtree=0/bitrate=1800/ratetol=1.0/qcomp=0.20/qpmin=10/qpmax=51/qpstep=4/cplxblur=20.0/qblur=0.5/vbv_maxrate=2000/vbv_bufsize=2000/nal_hrd=none/filler=0/ip_ratio=1.40/aq=1:1.0
    Default : Да
    Forced : Нет
    Цветовой диапазон : Limited
    Основные цвета : BT.709
    Характеристики трансфера : BT.709
    Коэффициенты матрицы : BT.709
    Аудио
    Идентификатор : 2
    Формат : AC-3
    Формат/Информация : Audio Coding 3
    Расширение режима : CM (complete main)
    Параметр Endianness формата : Big
    Идентификатор кодека : A_AC3
    Продолжительность : 26 м.
    Вид битрейта : Постоянный
    Битрейт : 192 Кбит/сек
    Каналы : 2 канала
    Расположение каналов : Front: L R
    Частота : 44, 1 КГц
    Частота кадров : 28, 711 кадров/сек (1536 spf)
    Метод сжатия : С потерями
    Размер потока : 35, 8 Мбайт (10%)
    Default : Да
    Forced : Нет


    Скриншоты для ознакомления




    Онлайн видео Последний москаль. Судный День



    Последний москаль. Судный День/Останній моcкаль. Судний День (2016) WEB-DLRip [H.264/720p-LQ] (сезон 2, серии 1-8 из 16) (обновляемая)
    загрузка...
    Рейтинг →
     (голосов: 1, оценка 4/5, голосовать можно 1 раз )

    Другие торренты по теме:

  • Последний москаль / Останній моcкаль (2014) WEB-DLRip [H.264 / 720p-LQ] (сезон 1, серии 1-16 из 16)
  • Последний москаль / Останній моcкаль (2014) WEB-DLRip [H.264 / 1080p-LQ] (сезон 1, серии 1-16 из 16)
  • Последний москаль. Судный День / Останній моcкаль. Судний День (2016) WEB-DLRip (сезон 2, серии 1-8 из 16) (обновляемая)
  • Последний москаль. Судный День / Останній моcкаль. Судний День (2016) WEB-DLRip [H.264 / 1080p-LQ] (сезон 2, серии 1-8 из 16) (обновляемая)
  • Последний москаль / Останній моcкаль (2014) WEB-DLRip (сезон 1, серии 1-16 из 16)


    • Комментарии (0):

      Информация

      Информация

        Посетители, находящиеся в группе Гости, не могут оставлять комментарии в данной новости.

        ↓ Меню




        ↓ Опрос

        Вы добавили сайт в закладки?
        Да
        Нет


        Top 10 за месяц (Фильмы)