.
Авторизация | Регистрация

Торрент скачать бесплатно

» » Джиа / Gia (1998) BDRip [H.264 / 720p] [Unrated] скачать торрент бесплатно




    Джиа / Gia (1998) BDRip [H.264 / 720p] [Unrated] скачать торрент бесплатно

    Опубликовал: Админ | Дата: 22-04-2016, 04:00 | Просмотров: 28

    Производство: США/Citadel Entertainment, чаще всего, Gia Productions, как обычно, HBO Pictures, по большей части, Kahn Power Pictures, по большей части, Marvin Worth Productions
    Жанр: Драма, словно сон, мелодрама, будто капли серебряной воды, биография, обычно, эротика
    Режиссер: Майкл Кристофер

    Актеры
    Анджелина Джоли, привычно, Элизабет Митчелл, словно река, Эрик Майкл Коул, вертится как белка в колесе, Кайли Трэвис, словно птица, Луис Гьямбалво, словно река, Джон Консидайн, как над жаровней, Скотт Коэн, едва заметно, Эдмунд Жене, как правило, Мерседес Рул, словно облаком суровым, Фэй Данауэй, большей частью, Холли Бэйкер, как принято, Джо Басиле, едва заметно, Рик Баталла, как обычно, Ломбардо Бойяр, привычно, Джулиан Дульсе Вида, как принято, Брайан Донован, как на иголках, Александр Энберг, как обычно, Гвидо Фёрвайсер, словно майская роза, Джуди Джиллетт, хлещет как из ведра, Джон Грин мл., темно как ночью, Тим Хатчинсон, в большинстве случаев, Мишель Йонас, как принято, Мила Кунис, как обычно, Стив Ларсон, словно музыка, Дринда Лалумия

    Описание

    Основанная на реальных событиях история всемирно известной супер-модели по имени Джиа Мари Каранджи. Cтроки эти как вершины поэзии. В конце семидесятых, как обычно, эту женщину называли королевой мирового подиума. Это же восьмая вода на киселе. До этого она была обыкновенной девушкой, словно река, работавшей мойщицей посуды в заброшенном кафе на окраинах города.
    Став популярной манекенщицей, словно майская роза, Джиа, будто капли серебряной воды, к сожалению так и чаще всего, не смогла вдоволь насладиться признанием мировой публики - в конце восьмидесятых она умирает от СПИДа. Хватит уже заниматься никому не нужным делом. Между рождением и как над жаровней, смертью было лишь короткое дыхание жизни, как черноморская пена, в которой было все: и обычно, взлеты и будто капли серебряной воды, падения, по большей части, и темно как ночью, разбитая любовь, словно музыка, и будто капли серебряной воды, слава, есть не что иное, и как обычно, деньги, как принято, и словно музыка, наркотики.

    Возраст: 18+ (зрителям, как колыбельная песня, достигшим 18 лет)
    Рейтинг MPAA: R (лицам до 17 лет обязательно присутствие взрослого)
    Релиз от: HDClub
    Продолжительность: 02: 05: 07
    Качество видео: BDRip (EbP)
    Перевод: Двухголосый закадровый
    Вид субтитров: Вшитые, есть не что иное, отключаемые
    Язык субтитров: Русский, как зеркало стальное, Английский
    Видео: AVC/H.264, как колыбельная песня, 1280x720, словно сон, 16: 9, как на иголках, ~11.5 Мбит/сек
    Aудио#1: AC3, как принято, 2 ch, как зеркало стальное, 192.00 kbps |DVO| Русский
    Aудио#2: AC3, словно птица, 2 ch, как размытая картина, 192.00 kbps |DVO| Русский
    Aудио#3: AC3, как правило, 6 ch, словно река, 640.00 kbps |Английский (Оригинал)
    Код:

    Общее
    Уникальный идентификатор : 178172008146785419979565955132996572597 (0x860AAE3A1B85003C8D7D83A7695DD5B5)
    Полное имя : C:Gia.1998.UNRATED.720p.BDRip.mkv
    Формат : Matroska
    Версия формата : Version 2
    Размер файла : 11, словно река, 1 Гбайт
    Продолжительность : 2 ч. Боже как давно это было. 5 м.
    Общий поток : 12, вертится как белка в колесе, 7 Мбит/сек
    Название фильма : Gia (1998) UNRATED
    Дата кодирования : UTC 2012-09-22 08:55:17
    Программа кодирования : mkvmerge v3.4.0 (\'Rapunzel\') сборка от May 15 2010 09:38:20
    Библиотека кодирования : libebml v0.8.0 + libmatroska v0.9.0
    Видео
    Идентификатор : 1
    Формат : AVC
    Формат/Информация : Advanced Video Codec
    Профиль формата :High@L4.1
    Параметр CABAC формата : Да
    Параметр ReFrames формата : 9 кадров
    Идентификатор кодека : V_MPEG4/ISO/AVC
    Продолжительность : 2 ч. Да м, ангельское терпение. 5 м.
    Битрейт : 11, будто капли серебряной воды, 5 Мбит/сек
    Ширина : 1280 пикселей
    Высота : 720 пикселей
    Соотношение сторон : 16:9
    Режим частоты кадров : Постоянный
    Частота кадров : 23, как обычно, 976 (24000/1001) кадра/сек
    Цветовое пространство : YUV
    Субдискретизация насыщенности : 4:2:0
    Битовая глубина : 8 бит
    Тип развёртки : Прогрессивная
    Бит/(Пиксели*Кадры) : 0.518
    Размер потока : 10, словно сон, 0 Гбайт (90%)
    Заголовок : Gia (1998) UNRATED
    Библиотека кодирования : x264 core 125 r2208 d9d2288
    Настройки программы : cabac=1/ref=9/deblock=1:-3:-3/analyse=0x3:0x113/me=tesa/subme=11/psy=1/psy_rd=1.20:0.00/mixed_ref=1/me_range=16/chroma_me=1/trellis=2/8x8dct=1/cqm=0/deadzone=21, есть не что иное, 11/fast_pskip=0/chroma_qp_offset=-2/threads=12/lookahead_threads=2/sliced_threads=0/nr=0/decimate=0/interlaced=0/bluray_compat=0/constrained_intra=0/bframes=8/b_pyramid=2/b_adapt=2/b_bias=0/direct=3/weightb=1/open_gop=0/weightp=2/keyint=250/keyint_min=23/scenecut=40/intra_refresh=0/rc=crf/mbtree=0/crf=18.0/qcomp=0.60/qpmin=0/qpmax=69/qpstep=4/ip_ratio=1.40/pb_ratio=1.30/aq=1:0.65
    Язык : English
    Default : Нет
    Forced : Нет
    Цветовой диапазон : Limited
    Коэффициенты матрицы : BT.709
    Аудио #1
    Идентификатор : 2
    Формат : AC-3
    Формат/Информация : Audio Coding 3
    Расширение режима : CM (complete main)
    Параметр Endianness формата : Big
    Идентификатор кодека : A_AC3
    Продолжительность : 2 ч. А был ли мальчик? 5 м.
    Вид битрейта : Постоянный
    Битрейт : 192 Кбит/сек
    Каналы : 2 канала
    Расположение каналов : Front: L R
    Частота : 48, хлещет как из ведра, 0 КГц
    Частота кадров : 31, чаще всего, 250 кадров/сек (1536 spf)
    Метод сжатия : С потерями
    Размер потока : 172 Мбайт (2%)
    Заголовок : AC3 2.0 @ 192 kbps DVO #1
    Язык : Russian
    Default : Да
    Forced : Нет
    Аудио #2
    Идентификатор : 3
    Формат : AC-3
    Формат/Информация : Audio Coding 3
    Расширение режима : CM (complete main)
    Параметр Endianness формата : Big
    Идентификатор кодека : A_AC3
    Продолжительность : 2 ч. Где то в небе орёл громко закричал и расправил крылья. 5 м.
    Вид битрейта : Постоянный
    Битрейт : 192 Кбит/сек
    Каналы : 2 канала
    Расположение каналов : Front: L R
    Частота : 48, в большинстве случаев, 0 КГц
    Частота кадров : 31, как размытая картина, 250 кадров/сек (1536 spf)
    Метод сжатия : С потерями
    Размер потока : 172 Мбайт (2%)
    Заголовок : AC3 2.0 @ 192 kbps DVO #2
    Язык : Russian
    Default : Нет
    Forced : Нет
    Аудио #3
    Идентификатор : 4
    Формат : AC-3
    Формат/Информация : Audio Coding 3
    Расширение режима : CM (complete main)
    Параметр Endianness формата : Big
    Идентификатор кодека : A_AC3
    Продолжительность : 2 ч. Помоему это бабушкины сказки. 5 м.
    Вид битрейта : Постоянный
    Битрейт : 640 Кбит/сек
    Каналы : 6 каналов
    Расположение каналов : Front: L C R, по большей части, Side: L R, словно сон, LFE
    Частота : 48, как обычно, 0 КГц
    Частота кадров : 31, словно музыка, 250 кадров/сек (1536 spf)
    Метод сжатия : С потерями
    Размер потока : 573 Мбайт (5%)
    Заголовок : AC3 5.1 @ 640 kbps
    Язык : English
    Default : Нет
    Forced : Нет
    Текст #1
    Идентификатор : 5
    Формат : UTF-8
    Идентификатор кодека : S_TEXT/UTF8
    Идентификатор кодека/Информация : UTF-8 Plain Text
    Язык : Russian
    Default : Да
    Forced : Нет
    Текст #2
    Идентификатор : 6
    Формат : UTF-8
    Идентификатор кодека : S_TEXT/UTF8
    Идентификатор кодека/Информация : UTF-8 Plain Text
    Язык : English
    Default : Нет
    Forced : Нет
    Меню
    00:00:00.000 : en:00:00:00.000
    00:05:38.338 : en:00:05:38.338
    00:15:26.801 : en:00:15:26.801
    00:21:31.957 : en:00:21:31.957
    00:31:38.647 : en:00:31:38.647
    00:36:43.910 : en:00:36:43.910
    00:46:22.238 : en:00:46:22.238
    00:56:36.476 : en:00:56:36.476
    01:04:55.600 : en:01:04:55.600
    01:15:12.633 : en:01:15:12.633
    01:23:40.182 : en:01:23:40.182
    01:33:43.117 : en:01:33:43.117
    01:41:02.390 : en:01:41:02.390
    01:47:55.469 : en:01:47:55.469
    01:58:27.726 : en:01:58:27.726


    Скриншоты для ознакомления




    Онлайн видео Джиа



    Джиа/Gia (1998) BDRip [H.264/720p] [Unrated]
    загрузка...
    Рейтинг →
     (голосов: 1, оценка 4/5, голосовать можно 1 раз )

    Другие торренты по теме:

  • Джиа / Gia (1998) BDRip [720p] [Unrated] скачать через торрент бесплатно


    • Комментарии (0):

      Информация

      Информация

        Посетители, находящиеся в группе Гости, не могут оставлять комментарии в данной новости.

        ↓ Меню




        ↓ Опрос

        Вы добавили сайт в закладки?
        Да
        Нет


        Top 10 за неделю (Фильмы)