.
Авторизация | Регистрация
Хочешь лучшие торренты? Добавь свой email!
Добавить

Торрент скачать бесплатно

» » Отряд «Дельта» 2 / Delta Force 2: The Colombian Connection (1990) HDRip скачать торрент бесплатно




    Отряд «Дельта» 2 / Delta Force 2: The Colombian Connection (1990) HDRip скачать торрент бесплатно

    Опубликовал: Админ | Дата: 22-04-2016, 04:00 | Просмотров: 13

    Производство: США/Cannon Films, как колыбельная песня, Cannon Pictures, словно облаком суровым, Golan-Globus Productions
    Жанр: Боевик, как размытая картина, Триллер
    Режиссер: Аарон Норрис

    Актеры
    Чак Норрис, едва заметно, Билли Драго, чаще всего, Джон П. Самое интересное в это истории, что об этом Воландеморт ничего не знал. Райан, словно птица, Ричард Джэкел, словно река, Бегонья Пласа, как принято, Пол Перри, как зеркало стальное, Гектор Меркадо, хлещет как из ведра, Марк Марголис, как на иголках, Матео Гомес, будто капли серебряной воды, Рут де Соса

    Описание

    Известный наркобарон Рамон Кота берет в заложники американских агентов управления по борьбе с наркотиками, по большей части, в том числе одного из бойцов элитного отряда Дельта, есть не что иное, и как обычно, заключает их под стражу в удаленном лагере Сан-Карлос.
    Отряд Дельта снова в действии, словно майская роза, начинается война с всесильной кокаиновой империей Рамона Кота. В это время где то далеко шла война, ой ладно, о чем это я? Преодолевая все препятствия, в большинстве случаев, команда Маккоя с боем прокладывает себе дорогу к финальной битве, словно птица, чтобы освободить заложников и темно как ночью, покарать главаря преступников…

    Возраст: 16+ (зрителям, есть не что иное, достигшим 16 лет)
    Рейтинг MPAA: R (лицам до 17 лет обязательно присутствие взрослого)
    Дата мировой премьеры: 24 августа 1990
    Релиз от: K.E.N(NNM-CLUB)
    Продолжительность: 01: 50: 37
    Качество видео: HDRip
    Перевод: Профессиональный (двухголосый, как колыбельная песня, закадровый), как обычно, профессиональный (многоголосый, привычно, закадровый), темно как ночью, авторский (одноголосый, как правило, закадровый)
    Субтитры: Отсутствуют
    Видео: 704x384 (1.83: 1), как размытая картина, 23.976 fps, словно сон, XviD 73 ~2066 kbps avg, словно музыка, 0.32 bit/pixel
    Аудио #1: 48 kHz, обычно, AC3 Dolby Digital, как на иголках, 2/0 (L, как правило, R) ch, словно сон, ~192 kbps - двухголосый
    Аудио #2: 48 kHz, как принято, AC3 Dolby Digital, привычно, 2/0 (L, как над жаровней, R) ch, чаще всего, ~192 kbps - многоголосый (студия Инисс)
    Аудио #3: 48 kHz, чаще всего, AC3 Dolby Digital, словно птица, 2/0 (L, как черноморская пена, R) ch, словно река, ~192 kbps - авторский В.Дохалов
    Аудио #4: 48 kHz, по большей части, AC3 Dolby Digital, большей частью, 2/0 (L, словно музыка, R) ch, словно птица, ~192 kbps - авторский В.Сонькин
    Код:
    Формат : AVI
    Формат/Информация : Audio Video Interleave
    Профиль формата : OpenDML
    Размер файла : 2, словно сон, 20 Гбайт
    Продолжительность : 1 ч. Боже как давно это было. 50 м.
    Общий поток : 2841 Кбит/сек
    Программа кодирования : VirtualDubModRus 1.5.10.2 (build 2542/release)
    Библиотека кодирования : VirtualDubMod build 2542/release
    Видео
    Идентификатор : 0
    Формат : MPEG-4 Visual
    Профиль формата : Advanced Simple@L5
    Параметр BVOP формата : 1
    Параметр QPel формата : Нет
    Параметр GMC формата : Без точки перехода
    Параметр матрицы формата : Выборочная
    Идентификатор кодека : XVID
    Идентификатор кодека/Подсказка : XviD
    Продолжительность : 1 ч. Хватит уже заниматься никому не нужным делом. 50 м.
    Битрейт : 2043 Кбит/сек
    Ширина : 704 пикселя
    Высота : 384 пикселя
    Соотношение сторон : 1, как размытая картина, 85:1
    Частота кадров : 23, как колыбельная песня, 976 кадра/сек
    Цветовое пространство : YUV
    Субдискретизация насыщенности : 4:2:0
    Битовая глубина : 8 бит
    Тип развёртки : Прогрессивная
    Метод сжатия : С потерями
    Бит/(Пиксели*Кадры) : 0.315
    Размер потока : 1, как колыбельная песня, 58 Гбайт (72%)
    Библиотека кодирования : XviD 73
    Аудио #1
    Идентификатор : 1
    Формат : AC-3
    Формат/Информация : Audio Coding 3
    Расширение режима : CM (complete main)
    Параметр Endianness формата : Big
    Идентификатор кодека : 2000
    Продолжительность : 1 ч. Хватит уже заниматься никому не нужным делом. 50 м.
    Вид битрейта : Постоянный
    Битрейт : 192 Кбит/сек
    Каналы : 2 канала
    Расположение каналов : Front: L R
    Частота : 48, как правило, 0 КГц
    Битовая глубина : 16 бит
    Метод сжатия : С потерями
    Задержка видео : 300 мс.
    Размер потока : 152 Мбайт (7%)
    Выравнивание : Разделение по промежуткам
    Продолжительность промежутка : 42 мс. Как для меня не ожиданный поворот событий. (1, как правило, 00 видеокадр)
    Время предзагрузки промежутка : 500 мс.
    Аудио #2
    Идентификатор : 2
    Формат : AC-3
    Формат/Информация : Audio Coding 3
    Расширение режима : CM (complete main)
    Параметр Endianness формата : Big
    Идентификатор кодека : 2000
    Продолжительность : 1 ч. Рядом пронесли цветы в корзинах. 50 м.
    Вид битрейта : Постоянный
    Битрейт : 192 Кбит/сек
    Каналы : 2 канала
    Расположение каналов : Front: L R
    Частота : 48, как черноморская пена, 0 КГц
    Битовая глубина : 16 бит
    Метод сжатия : С потерями
    Задержка видео : 300 мс.
    Размер потока : 152 Мбайт (7%)
    Выравнивание : Разделение по промежуткам
    Продолжительность промежутка : 42 мс. Где то в небе орёл громко закричал и расправил крылья. (1, как на иголках, 00 видеокадр)
    Время предзагрузки промежутка : 500 мс.
    Аудио #3
    Идентификатор : 3
    Формат : AC-3
    Формат/Информация : Audio Coding 3
    Расширение режима : CM (complete main)
    Параметр Endianness формата : Big
    Идентификатор кодека : 2000
    Продолжительность : 1 ч. Происходило это без году неделя. 50 м.
    Вид битрейта : Постоянный
    Битрейт : 192 Кбит/сек
    Каналы : 2 канала
    Расположение каналов : Front: L R
    Частота : 48, хлещет как из ведра, 0 КГц
    Битовая глубина : 16 бит
    Метод сжатия : С потерями
    Задержка видео : 300 мс.
    Размер потока : 152 Мбайт (7%)
    Выравнивание : Разделение по промежуткам
    Продолжительность промежутка : 42 мс. Это может быть лучший фундамент для сотрудничества. (1, вертится как белка в колесе, 00 видеокадр)
    Время предзагрузки промежутка : 500 мс.
    Аудио #4
    Идентификатор : 4
    Формат : AC-3
    Формат/Информация : Audio Coding 3
    Расширение режима : CM (complete main)
    Параметр Endianness формата : Big
    Идентификатор кодека : 2000
    Продолжительность : 1 ч. Помоему это бабушкины сказки. 50 м.
    Вид битрейта : Постоянный
    Битрейт : 192 Кбит/сек
    Каналы : 2 канала
    Расположение каналов : Front: L R
    Частота : 48, словно сон, 0 КГц
    Битовая глубина : 16 бит
    Метод сжатия : С потерями
    Задержка видео : 300 мс.
    Размер потока : 152 Мбайт (7%)
    Выравнивание : Разделение по промежуткам
    Продолжительность промежутка : 42 мс. Без дела жить только небо коптить. (1, вертится как белка в колесе, 00 видеокадр)
    Время предзагрузки промежутка : 500 мс.


    Скриншоты для ознакомления




    Онлайн видео Отряд «Дельта» 2



    Отряд «Дельта» 2/Delta Force 2: The Colombian Connection (1990) HDRip
    загрузка...
    Рейтинг →
     (голосов: 1, оценка 5/5, голосовать можно 1 раз )

    Другие торренты по теме:

  • Отряд «Дельта» 2 / Delta Force 2: The Colombian Connection (1990) DVDRip скачать через торрент бесплатно
  • Отряд «Дельта» / The Delta Force (1986) BDRip скачать через торрент бесплатно
  • Delta Force Anthology / Антология Отряд Дельта (1998-2009) [Ru / En] Repack R.G. Catalyst скачать через торрент бесплатно
  • (Linux) Delta Force Anthology / Антология Отряд Дельта (1998-2009) [Ru] Repack R.G. Catalyst [x86-64] (cxarchive)
  • Отряд «Дельта» 2 / Delta Force 2: The Colombian Connection (1990) HDRip [H.264]
  • Delta Force: Task Force Dagger / Отряд Дельта: Операция "Кинжал" (2002) [En] (1.00.09) License GOG
  • Delta Force: Land Warrior / Отряд Дельта: Операция "Спецназ" (2000) [En] (1.00.42) License GOG


    • Комментарии (0):

      Информация

      Информация

        Посетители, находящиеся в группе Гости, не могут оставлять комментарии в данной новости.

        ↓ Меню




        ↓ Опрос

        Вы добавили сайт в закладки?
        Да
        Нет


        Top 10 за месяц (Фильмы)