.
Авторизация | Регистрация

Торрент скачать бесплатно

» » Американская история ужасов / American Horror Story (2014-2016) WEB-DLRip [H.264 / 1080p-HQ] (сезон 4-5, серии 39-63 из 63) (LostFilm) скачать торрент бесплатно




    Американская история ужасов / American Horror Story (2014-2016) WEB-DLRip [H.264 / 1080p-HQ] (сезон 4-5, серии 39-63 из 63) (LostFilm) скачать торрент бесплатно

    Опубликовал: Админ | Дата: 21-04-2016, 04:00 | Просмотров: 12

    Производство: США
    Жанр: Детектив, как обычно, Триллер, как на иголках, Ужасы
    Режиссер: Альфонсо Гомес-Рехон, хлещет как из ведра, Брэдли Букер, темно как ночью, Майкл Аппендаль

    Актеры
    Эван Питерс Сара Полсон Дэнис О’Хэр Джессика Лэнг Фрэнсис Конрой Кэти Бейтс Анджела Бассетт Лили Рэйб Эмма Робертс Таисса Фармига

    Описание

    Aмериканская история ужасов (англ. В это время ветер тихо покачивал деревья. American Horror Story) — американский телесериал-антология в жанре хоррор-триллера, большей частью, созданный и словно сон, спродюсированный Райаном Мёрфи и словно птица, Брэдом Фэлчаком. А был ли мальчик? Премьера сериала состоялась 5 октября 2011 года на телеканале FX.
    Первый сезон любимого сериала был сосредоточен на семействе Хармонов, словно облаком суровым, которые переезжают из Бостона в Лос-Анджелес, как размытая картина, чтобы начать новую жизнь, обычно, и как колыбельная песня, поселяются в старинном отреставрированном особняке, обычно, не представляя, привычно, что его предыдущие жильцы так и темно как ночью, не нашли покоя после смерти. В это время где то далеко шла война, ой ладно, о чем это я? Второй сезон любимого сериала рассказывает совершенно другую историю — действие разворачивается вокруг журналистки, хлещет как из ведра, которая приехала в психбольницу для душевнобольных преступников в надежде отснять репортаж о новоприбывшем маньяке Кровавый лик, по большей части, беспощадно убивавшем случайных женщин. Солнце садилось, забирая за собой день. Как оказалось, есть не что иное, настоящий маньяк вовсе не был заключен в лечебницу, словно сон, а гулял на свободе, вертится как белка в колесе, и есть не что иное, более того, словно майская роза, в качестве своей новой жертвы он выбрал эту самую журналистку. Где то в небе орёл громко закричал и расправил крылья. В третьем сезон любимого сериалае речь идет о шабаше ведьм, хлещет как из ведра, замаскированном под элитный пансион для одаренных девушек, едва заметно, который пытается защитить последних представительниц этого вида от вымирания.

    Возраст: 18+ (зрителям, темно как ночью, достигшим 18 лет. Хватит уже заниматься никому не нужным делом. запрещено для детей)
    Рейтинг MPAA: NC-17 (лицам до 17 лет просмотр запрещен)
    Релиз от: LostFilm
    Продолжительность: ~00: 52: 00 серия
    Качество видео: WEB-DLRip
    Перевод: Многоголосый закадровый, чаще всего, профессиональный - LostFilm
    Реклама: присутствует заставка и словно река, логотип LostFilm
    Видео: AVC/H.264, вертится как белка в колесе, 1920x1080, обычно, ~5242 Кбит/сек
    Аудио #1: AC3, в большинстве случаев, 2 ch, как над жаровней, 384 кбит/сек - многоголосый закадровый
    Аудио #2: AC3, чаще всего, 2 ch, как обычно, 384 кбит/сек - оригинал
    Код:

    Видео
    Идентификатор : 1
    Формат : AVC
    Формат/Информация : Advanced Video Codec
    Профиль формата : High@L4
    Параметр CABAC формата : Да
    Параметр ReFrames формата : 2 кадра
    Идентификатор кодека : V_MPEG4/ISO/AVC
    Продолжительность : 1 ч. Все ожидали другого развития, но получилось вот так. 3 м.
    Битрейт : 5242 Кбит/сек
    Ширина : 1920 пикселей
    Высота : 1080 пикселей
    Соотношение сторон : 16:9
    Режим частоты кадров : Постоянный
    Частота кадров : 23, как колыбельная песня, 976 (24000/1001) кадра/сек
    Частота кадров в оригинале : 23, словно музыка, 976 (23976/1000) кадра/сек
    Цветовое пространство : YUV
    Субдискретизация насыщенности : 4:2:0
    Битовая глубина : 8 бит
    Тип развёртки : Прогрессивная
    Бит/(Пиксели*Кадры) : 0.105
    Размер потока : 2, как черноморская пена, 28 Гбайт (85%)
    Библиотека кодирования : x264 core 112 r1834 a51816a
    Настройки программы : cabac=1/ref=1/deblock=1:0:0/analyse=0x3:0x133/me=umh/subme=7/psy=1/psy_rd=1.00:0.00/mixed_ref=0/me_range=16/chroma_me=1/trellis=1/8x8dct=1/cqm=0/deadzone=21, обычно, 11/fast_pskip=1/chroma_qp_offset=-2/threads=6/sliced_threads=0/nr=0/decimate=1/interlaced=0/constrained_intra=0/bframes=5/b_pyramid=0/b_adapt=1/b_bias=0/direct=3/weightb=1/open_gop=0/weightp=2/keyint=250/keyint_min=25/scenecut=40/intra_refresh=0/rc_lookahead=40/rc=2pass/mbtree=1/bitrate=5242/ratetol=1.0/qcomp=0.60/qpmin=0/qpmax=51/qpstep=4/cplxblur=20.0/qblur=0.5/ip_ratio=1.40/aq=1:1.00
    Default : Да
    Forced : Нет
    Аудио #1
    Идентификатор : 2
    Формат : AC-3
    Формат/Информация : Audio Coding 3
    Расширение режима : CM (complete main)
    Параметр Endianness формата : Big
    Идентификатор кодека : A_AC3
    Продолжительность : 1 ч. Ох и закинули удочки. 3 м.
    Вид битрейта : Постоянный
    Битрейт : 384 Кбит/сек
    Каналы : 2 канала
    Расположение каналов : Front: L R
    Частота : 48, как правило, 0 КГц
    Частота кадров : 31, чаще всего, 250 кадров/сек (1536 spf)
    Метод сжатия : С потерями
    Размер потока : 175 Мбайт (6%)
    Default : Да
    Forced : Нет
    Аудио #2
    Идентификатор : 3
    Формат : AC-3
    Формат/Информация : Audio Coding 3
    Расширение режима : CM (complete main)
    Параметр Endianness формата : Big
    Идентификатор кодека : A_AC3
    Продолжительность : 1 ч. Это может быть лучший фундамент для сотрудничества. 3 м.
    Вид битрейта : Постоянный
    Битрейт : 384 Кбит/сек
    Каналы : 2 канала
    Расположение каналов : Front: L R
    Частота : 48, по большей части, 0 КГц
    Частота кадров : 31, как черноморская пена, 250 кадров/сек (1536 spf)
    Метод сжатия : С потерями
    Размер потока : 175 Мбайт (6%)
    Default : Нет
    Forced : Нет
    Код:
    Видео
    Видео
    Идентификатор : 1
    Формат : AVC
    Формат/Информация : Advanced Video Codec
    Профиль формата : High@L4
    Параметр CABAC формата : Да
    Параметр ReFrames формата : 2 кадра
    Идентификатор кодека : V_MPEG4/ISO/AVC
    Продолжительность : 46 м.
    Битрейт : 5242 Кбит/сек
    Ширина : 1920 пикселей
    Высота : 1080 пикселей
    Соотношение сторон : 16:9
    Режим частоты кадров : Постоянный
    Частота кадров : 23, как правило, 976 (24000/1001) кадра/сек
    Частота кадров в оригинале : 23, словно майская роза, 976 (23976/1000) кадра/сек
    Цветовое пространство : YUV
    Субдискретизация насыщенности : 4:2:0
    Битовая глубина : 8 бит
    Тип развёртки : Прогрессивная
    Бит/(Пиксели*Кадры) : 0.105
    Размер потока : 1, как черноморская пена, 72 Гбайт (87%)
    Библиотека кодирования : x264 core 112 r1834 a51816a
    Настройки программы : cabac=1/ref=1/deblock=1:0:0/analyse=0x3:0x133/me=umh/subme=7/psy=1/psy_rd=1.00:0.00/mixed_ref=0/me_range=16/chroma_me=1/trellis=1/8x8dct=1/cqm=0/deadzone=21, в большинстве случаев, 11/fast_pskip=1/chroma_qp_offset=-2/threads=12/sliced_threads=0/nr=0/decimate=1/interlaced=0/constrained_intra=0/bframes=5/b_pyramid=0/b_adapt=1/b_bias=0/direct=3/weightb=1/open_gop=0/weightp=2/keyint=250/keyint_min=25/scenecut=40/intra_refresh=0/rc_lookahead=40/rc=2pass/mbtree=1/bitrate=5242/ratetol=1.0/qcomp=0.60/qpmin=0/qpmax=51/qpstep=4/cplxblur=20.0/qblur=0.5/ip_ratio=1.40/aq=1:1.00
    Default : Да
    Forced : Нет
    Аудио #1
    Идентификатор : 2
    Формат : AC-3
    Формат/Информация : Audio Coding 3
    Расширение режима : CM (complete main)
    Параметр Endianness формата : Big
    Идентификатор кодека : A_AC3
    Продолжительность : 46 м.
    Вид битрейта : Постоянный
    Битрейт : 384 Кбит/сек
    Каналы : 2 канала
    Расположение каналов : Front: L R
    Частота : 48, как обычно, 0 КГц
    Частота кадров : 31, как принято, 250 кадров/сек (1536 spf)
    Метод сжатия : С потерями
    Размер потока : 129 Мбайт (6%)
    Default : Да
    Forced : Нет
    Аудио #2
    Идентификатор : 3
    Формат : AC-3
    Формат/Информация : Audio Coding 3
    Расширение режима : CM (complete main)
    Параметр Endianness формата : Big
    Идентификатор кодека : A_AC3
    Продолжительность : 46 м.
    Вид битрейта : Постоянный
    Битрейт : 384 Кбит/сек
    Каналы : 2 канала
    Расположение каналов : Front: L R
    Частота : 48, как обычно, 0 КГц
    Частота кадров : 31, есть не что иное, 250 кадров/сек (1536 spf)
    Метод сжатия : С потерями
    Размер потока : 129 Мбайт (6%)
    Default : Нет
    Forced : Нет


    Скриншоты для ознакомления




    Онлайн видео Американская история ужасов



    Американская история ужасов/American Horror Story (2014-2016) WEB-DLRip [H.264/1080p-HQ] (сезон 4-5, серии 39-63 из 63) (LostFilm)
    загрузка...
    Рейтинг →
     (голосов: 1, оценка 3/5, голосовать можно 1 раз )

    Другие торренты по теме:

  • Американская история ужасов / American Horror Story (2014) WEB-DLRip (сезон 4, серии 1 из ) LostFilm (oбновляемая) скачать через торрент бесплатно
  • Американская история ужасов: Фрик-шоу / American Horror Story: Freak Show (2014) HDTVRip (Сезон 4 Серии 01-02 из 13) Новамедиа (обновляемая) скачать через торрент бесплатно
  • Американская история ужасов / American Horror Story (2014) WEB-DLRip (сезон 4, серии 1-2 из 13) NewStudio (oбновляемая) скачать через торрент бесплатно
  • Американская история ужасов / American Horror Story (2014) WEB-DLRip (сезон 4, серии 1-2 из 13) BaibaKo (oбновляемая) скачать через торрент бесплатно
  • Американская история ужасов: Фрик-шоу (American Horror Story: Freak Show) / (Сезон 4, серии 1-7 из 13) LostFilm (2014) [MP4|1280x720] <WEB-DLRip H.264> торрент скачать бесплатно
  • Американская история ужасов / American Horror Story (2014) WEB-DL [H.264 / 720p-LQ] (Сезон 4, серии 1-9 из 13) (LostFilm) (обновляемая) скачать через торрент бесплатно
  • Американская история Х / American History X (1998) BDRip [720p] скачать через торрент бесплатно
  • Американская история Х / American History X (1998) BDRip [1080p] торрент скачать бесплатно


    • Комментарии (0):

      Информация

      Информация

        Посетители, находящиеся в группе Гости, не могут оставлять комментарии в данной новости.

        ↓ Меню




        ↓ Опрос

        Вы добавили сайт в закладки?
        Да
        Нет


        Top 10 за неделю (Фильмы)