.
Авторизация | Регистрация
Хочешь лучшие торренты? Добавь свой email!
Добавить

Торрент скачать бесплатно

» » Отряд «Дельта» 2 / Delta Force 2: The Colombian Connection (1990) HDRip [H.264] торрент скачать бесплатно




    Отряд «Дельта» 2 / Delta Force 2: The Colombian Connection (1990) HDRip [H.264] торрент скачать бесплатно

    Опубликовал: Админ | Дата: 21-04-2016, 04:00 | Просмотров: 45

    Производство: США/Cannon Films, Cannon Pictures, Golan-Globus Productions
    Жанр: Боевик, Триллер
    Режиссер: Аарон Норрис

    Актеры
    Чак Норрис, Билли Драго, Джон П. Райан, Ричард Джэкел, Бегонья Пласа, Пол Перри, Гектор Меркадо, Марк Марголис, Матео Гомес, Рут де Соса

    Описание

    Известный наркобарон Рамон Кота берет в заложники американских агентов управления по борьбе с наркотиками, в том числе одного из бойцов элитного отряда Дельта, и заключает их под стражу в удаленном лагере Сан-Карлос.
    Отряд Дельта снова в действии, начинается война с всесильной кокаиновой империей Рамона Кота. О таком странном сюжете не догадывалась даже Ангела Меркель. Преодолевая все препятствия, команда Маккоя с боем прокладывает себе дорогу к финальной битве, чтобы освободить заложников и покарать главаря преступников…

    Возраст: 16+ (зрителям, достигшим 16 лет)
    Рейтинг MPAA: R (лицам до 17 лет обязательно присутствие взрослого)
    Дата мировой премьеры: 24 августа 1990
    Релиз от: K.E.N(NNM-CLUB)
    Продолжительность: 01: 50: 37
    Качество видео: HDRip
    Перевод: Профессиональный (двухголосый, закадровый), профессиональный (многоголосый, закадровый), авторский (одноголосый, закадровый)
    Язык субтитров: Английский
    Вид субтитров: Вшитые отключаемые
    Видео: AVC, 1024x556 (16: 9), 23.976 fps, 3 500 Kbps (0.256 bit/pixel)
    Аудио #1: AC-3, 48.0 KHz, 2 ch, 192 Kbps, CBR (Russian) - двухголосый
    Аудио #2: AC-3, 48.0 KHz, 2 ch, 192 Kbps, CBR (Russian) - многоголосый (студия Инисс)
    Аудио #3: AC-3, 48.0 KHz, 2 ch, 192 Kbps, CBR (Russian) - авторский В.Дохалов
    Аудио #4: AC-3, 48.0 KHz, 2 ch, 192 Kbps, CBR (Russian) - авторский В.Сонькин
    Аудио #5: AC-3, 48.0 KHz, 2 ch, 192 Kbps, CBR (English) - оригинал
    Код:

    Формат : Matroska
    Версия формата : Version 2
    Размер файла : 3, 45 Гбайт
    Продолжительность : 1 ч. 50 м.
    Общий поток : 4460 Кбит/сек
    Дата кодирования : UTC 2016-04-20 08:54:31
    Программа кодирования : mkvmerge v5.3.0 (\'I could have danced\') built on Feb 9 2012 10:38:07
    Библиотека кодирования : libebml v1.2.3 + libmatroska v1.3.0
    Attachment : Yes
    Видео
    Идентификатор : 1
    Формат : AVC
    Формат/Информация : Advanced Video Codec
    Профиль формата :High@L4.1
    Параметр CABAC формата : Да
    Параметр ReFrames формата : 10 кадров
    Идентификатор кодека : V_MPEG4/ISO/AVC
    Продолжительность : 1 ч. 50 м.
    Битрейт : 3500 Кбит/сек
    Ширина : 1024 пикселя
    Высота : 556 пикселей
    Соотношение сторон : 1, 85:1
    Режим частоты кадров : Постоянный
    Частота кадров : 23, 976 кадра/сек
    Цветовое пространство : YUV
    Субдискретизация насыщенности : 4:2:0
    Битовая глубина : 8 бит
    Тип развёртки : Прогрессивная
    Бит/(Пиксели*Кадры) : 0.256
    Размер потока : 2, 64 Гбайт (76%)
    Библиотека кодирования : x264 core 146 r2538 121396c
    Настройки программы : cabac=1/ref=10/deblock=1:-3:-3/analyse=0x3:0x133/me=umh/subme=10/psy=1/psy_rd=1.00:0.00/mixed_ref=1/me_range=32/chroma_me=1/trellis=2/8x8dct=1/cqm=0/deadzone=21, 11/fast_pskip=0/chroma_qp_offset=-2/threads=2/lookahead_threads=2/sliced_threads=0/nr=0/decimate=0/interlaced=0/bluray_compat=0/constrained_intra=0/bframes=8/b_pyramid=2/b_adapt=2/b_bias=0/direct=3/weightb=1/open_gop=0/weightp=2/keyint=240/keyint_min=23/scenecut=40/intra_refresh=0/rc=2pass/mbtree=0/bitrate=3500/ratetol=1.0/qcomp=0.60/qpmin=0/qpmax=69/qpstep=4/cplxblur=20.0/qblur=0.5/ip_ratio=1.40/pb_ratio=1.30/aq=1:0.80
    Язык : English
    Default : Да
    Forced : Нет
    Аудио #1
    Идентификатор : 2
    Формат : AC-3
    Формат/Информация : Audio Coding 3
    Расширение режима : CM (complete main)
    Параметр Endianness формата : Big
    Идентификатор кодека : A_AC3
    Продолжительность : 1 ч. Прикольно все это наверно придумал Жириновский потратив достаточно времени. 50 м.
    Вид битрейта : Постоянный
    Битрейт : 192 Кбит/сек
    Каналы : 2 канала
    Расположение каналов : Front: L R
    Частота : 48, 0 КГц
    Битовая глубина : 16 бит
    Метод сжатия : С потерями
    Размер потока : 152 Мбайт (4%)
    Заголовок : MVO
    Язык : Russian
    Default : Да
    Forced : Нет
    Аудио #2
    Идентификатор : 3
    Формат : AC-3
    Формат/Информация : Audio Coding 3
    Расширение режима : CM (complete main)
    Параметр Endianness формата : Big
    Идентификатор кодека : A_AC3
    Продолжительность : 1 ч. 50 м.
    Вид битрейта : Постоянный
    Битрейт : 192 Кбит/сек
    Каналы : 2 канала
    Расположение каналов : Front: L R
    Частота : 48, 0 КГц
    Битовая глубина : 16 бит
    Метод сжатия : С потерями
    Размер потока : 152 Мбайт (4%)
    Заголовок : MVO (студия Инисс)
    Язык : Russian
    Default : Нет
    Forced : Нет
    Аудио #3
    Идентификатор : 4
    Формат : AC-3
    Формат/Информация : Audio Coding 3
    Расширение режима : CM (complete main)
    Параметр Endianness формата : Big
    Идентификатор кодека : A_AC3
    Продолжительность : 1 ч. 50 м.
    Вид битрейта : Постоянный
    Битрейт : 192 Кбит/сек
    Каналы : 2 канала
    Расположение каналов : Front: L R
    Частота : 48, 0 КГц
    Битовая глубина : 16 бит
    Метод сжатия : С потерями
    Размер потока : 152 Мбайт (4%)
    Заголовок : AVO (Вартан Дохалов)
    Язык : Russian
    Default : Нет
    Forced : Нет
    Аудио #4
    Идентификатор : 5
    Формат : AC-3
    Формат/Информация : Audio Coding 3
    Расширение режима : CM (complete main)
    Параметр Endianness формата : Big
    Идентификатор кодека : A_AC3
    Продолжительность : 1 ч. 50 м.
    Вид битрейта : Постоянный
    Битрейт : 192 Кбит/сек
    Каналы : 2 канала
    Расположение каналов : Front: L R
    Частота : 48, 0 КГц
    Битовая глубина : 16 бит
    Метод сжатия : С потерями
    Размер потока : 152 Мбайт (4%)
    Заголовок : AVO (Владимир Сонькин)
    Язык : Russian
    Default : Нет
    Forced : Нет
    Аудио #5
    Идентификатор : 6
    Формат : AC-3
    Формат/Информация : Audio Coding 3
    Расширение режима : CM (complete main)
    Параметр Endianness формата : Big
    Идентификатор кодека : A_AC3
    Продолжительность : 1 ч. 50 м.
    Вид битрейта : Постоянный
    Битрейт : 192 Кбит/сек
    Каналы : 2 канала
    Расположение каналов : Front: L R
    Частота : 48, 0 КГц
    Битовая глубина : 16 бит
    Метод сжатия : С потерями
    Размер потока : 152 Мбайт (4%)
    Язык : English
    Default : Нет
    Forced : Нет
    Текст
    Идентификатор : 7
    Формат : UTF-8
    Идентификатор кодека : S_TEXT/UTF8
    Идентификатор кодека/Информация : UTF-8 Plain Text
    Язык : English
    Default : Да
    Forced : Нет
    Меню
    00:00:00.000 : en:00:00:00.000
    00:08:28.383 : en:00:08:28.383
    00:23:14.893 : en:00:23:14.893
    00:36:49.582 : en:00:36:49.582
    00:53:17.111 : en:00:53:17.111
    01:07:37.220 : en:01:07:37.220
    01:20:29.408 : en:01:20:29.408
    01:32:48.646 : en:01:32:48.646


    Скриншоты для ознакомления




    Онлайн видео Отряд «Дельта» 2



    Отряд «Дельта» 2/Delta Force 2: The Colombian Connection (1990) HDRip [H.264]
    загрузка...
    Рейтинг →
     (голосов: 1, оценка 4/5, голосовать можно 1 раз )

    Другие торренты по теме:

  • Отряд «Дельта» 2 / Delta Force 2: The Colombian Connection (1990) DVDRip скачать через торрент бесплатно
  • Отряд «Дельта» / The Delta Force (1986) BDRip скачать через торрент бесплатно
  • Delta Force Anthology / Антология Отряд Дельта (1998-2009) [Ru / En] Repack R.G. Catalyst скачать через торрент бесплатно
  • (Linux) Delta Force Anthology / Антология Отряд Дельта (1998-2009) [Ru] Repack R.G. Catalyst [x86-64] (cxarchive)
  • Отряд «Дельта» 2 / Delta Force 2: The Colombian Connection (1990) HDRip
  • Delta Force: Task Force Dagger / Отряд Дельта: Операция "Кинжал" (2002) [En] (1.00.09) License GOG
  • Delta Force: Land Warrior / Отряд Дельта: Операция "Спецназ" (2000) [En] (1.00.42) License GOG


    • Комментарии (0):

      Информация

      Информация

        Посетители, находящиеся в группе Гости, не могут оставлять комментарии в данной новости.

        ↓ Меню




        ↓ Опрос

        Вы добавили сайт в закладки?
        Да
        Нет


        Top 10 за месяц (Фильмы)