.
Авторизация | Регистрация
Хочешь лучшие торренты? Добавь свой email!
Добавить

Торрент скачать бесплатно

» » 12 обезьян / 12 Monkeys (2016) WEBRip [H.264 / 1080p-LQ] (сезон 2, серии 1 из 13) LostFilm (обновляемая) торрент скачать бесплатно




    12 обезьян / 12 Monkeys (2016) WEBRip [H.264 / 1080p-LQ] (сезон 2, серии 1 из 13) LostFilm (обновляемая) торрент скачать бесплатно

    Опубликовал: Админ | Дата: 20-04-2016, 04:00 | Просмотров: 4

    Производство: США
    Жанр: фантастика, триллер, драма, детектив, приключения
    Режиссер: Денни Гордон, Дэвид Бойд, Джон Бэдхем, Майкл Уэксмэн, Джеффри Райнер и другие.

    Актеры
    Аарон Стэнфорд (Джеймс Коул), Аманда Шулл (доктор Кассандра Рейли), Кирк Асеведо (Рамзи), Ной Бин (Аарон Маркер), Демор Барнс (Уитли), Рамон Де Окампо (Оливер Питерс), Эмили Хэмпшир (Дженнифер Гоинс)

    Описание

    2043 год. Смертельный вирус уничтожил почти все население планеты. Те, кому посчастливилось выжить, ютятся под землей, но ресурсы на исходе, и в преддверии апокалипсиса атмосфера в обществе накаляется. Чтобы исправить ситуацию, группа ученых отправляет в прошлое заключенного по имени Джеймс Коул (Аарон Стэнфорд). За успешное выполнение миссии ему обещано прощение всех преступлений. Единственной зацепкой Джеймса в 2013 году является доктор Кассандра Рейли (Аманда Шулл), которая в момент знакомства с главным героем как раз возвращалась со своей лекции, посвященной опасности вирусов. Для начала Коулу нужно доказать, что он пришел из будущего, а затем уговорить девушку помочь найти человека, причастного к распространению опасной заразы. Так начинается смертельная гонка за надеждой на выживание, в которой герою предстоит раскрыть тайну 12 обезьян, противостоять влиятельным злодеям и в конечном счете устранить причину зарождения тотальной эпидемии.

    Продолжительность: ~00: 45: 00 серия
    Качество видео: WEBRip
    Перевод: Многоголосый закадровый, профессиональный -LostFilm
    Реклама: присутствует логотип и заставка LostFilm
    Видео: AVC/H.264, 1920x1080, ~5242 Kbps
    Аудио #1: AC3, 2 ch, 384 Kbps, CBR - русский LostFilm
    Аудио #2: AC3, 2 ch, 384 Kbps, CBR - английский оригинал
    Код:

    General
    Unique ID : 229915449259257528207584696676671768071 (0xACF81AD6D4CD31F69C27D3FCAF3B4607)
    Complete name : 12 Monkeys 2 - LostFilm.TV [1080p]12.Monkeys.S02E01.1080p.rus.LostFilm.TV.mkv
    Format : Matroska
    Format version : Version 4/Version 2
    File size : 1.85 GiB
    Duration : 44mn 1s
    Overall bit rate : 6 011 Kbps
    Encoded date : UTC 2016-04-17 12:58:17
    Writing application : mkvmerge v8.8.0 (\'Wind at my back\') 64bit
    Writing library : libebml v1.3.3 + libmatroska v1.4.4
    Video
    ID : 1
    Format : AVC
    Format/Info : Advanced Video Codec
    Format profile : High@L4
    Format settings, CABAC : Yes
    Format settings, ReFrames : 4 frames
    Codec ID : V_MPEG4/ISO/AVC
    Duration : 44mn 1s
    Bit rate : 5 242 Kbps
    Width : 1 920 pixels
    Height : 1 080 pixels
    Display aspect ratio : 16:9
    Frame rate mode : Constant
    Frame rate : 23.976 (24000/1001) fps
    Original frame rate : 23.976 (23976/1000) fps
    Color space : YUV
    Chroma subsampling : 4:2:0
    Bit depth : 8 bits
    Scan type : Progressive
    Bits/(Pixel*Frame) : 0.105
    Stream size : 1.61 GiB (87%)
    Writing library : x264 core 112 r1834 a51816a
    Encoding settings : cabac=1/ref=4/deblock=1:-3:-2/analyse=0x3:0x133/me=umh/subme=6/psy=1/psy_rd=1.00:0.00/mixed_ref=1/me_range=24/chroma_me=1/trellis=1/8x8dct=1/cqm=0/deadzone=21, 11/fast_pskip=1/chroma_qp_offset=-2/threads=12/sliced_threads=0/nr=0/decimate=1/interlaced=0/constrained_intra=0/bframes=5/b_pyramid=0/b_adapt=1/b_bias=0/direct=3/weightb=1/open_gop=0/weightp=2/keyint=250/keyint_min=25/scenecut=40/intra_refresh=0/rc_lookahead=60/rc=2pass/mbtree=1/bitrate=5242/ratetol=1.0/qcomp=0.60/qpmin=0/qpmax=51/qpstep=4/cplxblur=20.0/qblur=0.5/ip_ratio=1.40/aq=1:1.00
    Default : Yes
    Forced : No
    Audio #1
    ID : 2
    Format : AC-3
    Format/Info : Audio Coding 3
    Mode extension : CM (complete main)
    Format settings, Endianness : Big
    Codec ID : A_AC3
    Duration : 44mn 1s
    Bit rate mode : Constant
    Bit rate : 384 Kbps
    Channel(s) : 2 channels
    Channel positions : Front: L R
    Sampling rate : 48.0 KHz
    Frame rate : 31.250 fps (1536 spf)
    Compression mode : Lossy
    Stream size : 121 MiB (6%)
    Default : Yes
    Forced : No
    Audio #2
    ID : 3
    Format : AC-3
    Format/Info : Audio Coding 3
    Mode extension : CM (complete main)
    Format settings, Endianness : Big
    Codec ID : A_AC3
    Duration : 44mn 1s
    Bit rate mode : Constant
    Bit rate : 384 Kbps
    Channel(s) : 2 channels
    Channel positions : Front: L R
    Sampling rate : 48.0 KHz
    Frame rate : 31.250 fps (1536 spf)
    Compression mode : Lossy
    Stream size : 121 MiB (6%)
    Default : No
    Forced : No


    Скриншоты для ознакомления




    Онлайн видео 12 обезьян



    12 обезьян/12 Monkeys (2016) WEBRip [H.264/1080p-LQ] (сезон 2, серии 1 из 13) LostFilm (обновляемая)
    загрузка...
    Рейтинг →
     (голосов: 1, оценка 3/5, голосовать можно 1 раз )

    Другие торренты по теме:

  • 12 обезьян / 12 Monkeys (2015) WEB-DLRip (сезон 1, серии 1 из 13) BaibaKo (обновляемая)
  • 12 обезьян / 12 Monkeys (2015) WEB-DL [H.264 / 720p-LQ] (сезон 1, серии 1 из 13) (BaibaKo) (обновляемая) скачать через торрент бесплатно
  • 12 обезьян (12 Monkeys) / (Сезон 1, серии 1-2 из 13) BaibaKo (2015) [MP4|720x400] <WEB-DLRip / HDTVRip [H.264]> скачать через торрент бесплатно
  • 12 обезьян / 12 Monkeys (2015) WEB-DLRip [H.264 / 1080p-LQ] (сезон 1, серии 1 из 13) LostFilm (обновляемая) скачать через торрент бесплатно
  • 12 обезьян / 12 Monkeys (2015) WEB-DLRip (сезон 1, серии 1 из 13) LostFilm (обновляемая) скачать через торрент бесплатно
  • 12 обезьян (12 Monkeys) / (Сезон 1, серия 1 из 13) LostFilm (2015) [MP4|1280x720] <WEB-DLRip [H.264]>
  • 12 обезьян / 12 Monkeys (2015) WEB-DL [H.264 / 720p-LQ] (сезон 1, серии 1-2 из 13) (LostFilm) (обновляемая)
  • 12 обезьян / 12 Monkeys (2016) HDTVrip (сезон 2, серии 1 из 13) OMSKBIRD (обновляемая)


    • Комментарии (0):

      Информация

      Информация

        Посетители, находящиеся в группе Гости, не могут оставлять комментарии в данной новости.

        ↓ Меню




        ↓ Опрос

        Вы добавили сайт в закладки?
        Да
        Нет


        Top 10 за месяц (Фильмы)