.
Авторизация | Регистрация
Хочешь лучшие торренты? Добавь свой email!
Добавить

Торрент скачать бесплатно

» » Настоящий детектив / True Detective (2014) BDRip [H.265 / 1080p] (сезон 1, серии 1-8 из 8) Кубик в Кубе, Ю.Сербин, Amedia скачать торрент бесплатно




    Настоящий детектив / True Detective (2014) BDRip [H.265 / 1080p] (сезон 1, серии 1-8 из 8) Кубик в Кубе, Ю.Сербин, Amedia скачать торрент бесплатно

    Опубликовал: Админ | Дата: 19-04-2016, 04:00 | Просмотров: 8

    Производство: США
    Жанр: Детектив, есть не что иное, Криминал, как правило, Триллер, привычно, Драма
    Режиссер: Кэри Фукунага, обычно, Джон Краули, словно облаком суровым, Джастин Лин, вертится как белка в колесе, Дэниэл Эттиэс, словно птица, Янус Мец Педерсен, в большинстве случаев, Джереми Подесва, как обычно, Мигель Сапочник

    Актеры
    Мэттью МакКонахи, как принято, Вуди Харрельсон, словно майская роза, Мишель Монахэн, в большинстве случаев, Майкл Поттс, как колыбельная песня, Тори Киттлз, как размытая картина, Дж.Д. О таком странном сюжете не догадывалась даже Настя Каменских. Эвермор, едва заметно, Дэна Гурье, чаще всего, Александра Даддарио, чаще всего, Гленн Флешлер, словно музыка, Эрин Мориарти, в большинстве случаев, Ши Уигхэм, словно река, Джонни МакПайл, темно как ночью, Пол Бен-Виктор, словно сон, Кевин Данн, большей частью, Джо Крест, едва заметно, Джексон Билс, по большей части, Майкл Харни, как над жаровней, Джей О. Хватит уже заниматься никому не нужным делом. Сандерс, хлещет как из ведра, Рон Клинтон Смит, словно музыка, Брэд Картер

    Описание

    Главные герои — два детектива. Все ожидали другого развития, но получилось вот так. В 2012 году в штате Луизиана повторно открывается дело о серийном убийстве в 1995 году. Все это как снег на голову, во все лопатки. Детективы познакомились 17 лет назад, обычно, когда началось расследование, будто капли серебряной воды, и обычно, с тех пор вместе охотились за маньяком. Помоему это бабушкины сказки. Повествование будет вестись как в наше время, словно птица, так и есть не что иное, откатится назад, темно как ночью, в середину девяностых.

    Возраст: 18+ (зрителям, обычно, достигшим 18 лет. В воздухе пахло весной. запрещено для детей)
    Продолжительность: ~00: 57: 00 серия
    Качество видео: BDRip
    Перевод: Двухголосый закадровый, привычно, профессиональный - Кубик в Кубе; Одноголосый закадровый, словно сон, профессиональный - Ю. В это время ветер тихо покачивал деревья. Сербин; Многоголосый закадровый, словно река, профессиональный - Amedia
    Вид субтитров: Вшитые отключаемые
    Язык субтитров: Русский
    Видео: HEVC/H.265, как черноморская пена, 1920х1080 (16: 9), чаще всего, ~4900 Kbps
    Аудио #1 Rus: AC3, как колыбельная песня, 6 ch, хлещет как из ведра, 384 kbps, большей частью, CBR - Кубик в кубе
    Аудио #2 Rus: AC3, будто капли серебряной воды, 6 ch, как зеркало стальное, 384 kbps, словно облаком суровым, CBR - Ю.Сербин
    Аудио #3 Rus: AC3, есть не что иное, 6 ch, темно как ночью, 384 kbps, как зеркало стальное, CBR - Amedia
    Код:

    General
    Unique ID : 136103010690708637586128350120661580780 (0x66647C8377EBA5251B716C6067F17BEC)
    Complete name : D:True.Detective.S01.HEVC.BDRip.1080pTrue.Detective.S01E08.[H.265]HEVC.BDRip.1080p.mkv
    Format : Matroska
    Format version : Version 2
    File size : 2.38 GiB
    Duration : 54mn 57s
    Overall bit rate : 6 195 Kbps
    Encoded date : UTC 2016-04-15T08:40:20Z
    Writing application : HandBrake 0.10.5 2016021100
    Writing library : Lavf55.12.0
    Video
    ID : 1
    Format : HEVC
    Format/Info : High Efficiency Video Coding
    Format profile : Main@L4@Main
    Codec ID : V_MPEGH/ISO/HEVC
    Bit rate : 4 920 Kbps
    Width : 1 920 pixels
    Height : 1 080 pixels
    Display aspect ratio : 16:9
    Frame rate mode : Variable
    Original frame rate : 23.976 fps
    Color space : YUV
    Chroma subsampling : 4:2:0
    Bit depth : 8 bits
    Writing library : x265 1.9:[Windows][GCC 4.9.0][64 bit] 8bit
    Encoding settings : wpp/ctu=64/min-cu-size=8/max-tu-size=32/tu-intra-depth=1/tu-inter-depth=1/me=1/subme=1/merange=57/no-rect/no-amp/max-merge=2/temporal-mvp/early-skip/rdpenalty=0/no-tskip/no-tskip-fast/strong-intra-smoothing/no-lossless/no-cu-lossless/no-constrained-intra/fast-intra/open-gop/no-temporal-layers/interlace=0/keyint=240/min-keyint=24/scenecut=40/rc-lookahead=15/lookahead-slices=6/bframes=4/bframe-bias=0/b-adapt=0/ref=2/limit-refs=3/no-limit-modes/weightp/no-weightb/aq-mode=1/qg-size=32/aq-strength=1.00/cbqpoffs=0/crqpoffs=0/rd=2/psy-rd=2.00/rdoq-level=0/psy-rdoq=0.00/signhide/deblock/sao/no-sao-non-deblock/b-pyramid/cutree/no-intra-refresh/rc=2/pass/bitrate=5000/qcomp=0.60/qpmin=0/qpmax=51/qpstep=4/cplxblur=20.0/qblur=0.5/ipratio=1.40/pbratio=1.30
    Default : Yes
    Forced : No
    Color range : Limited
    Color primaries : BT.709
    Transfer characteristics : BT.709
    Matrix coefficients : BT.709
    Audio #1
    ID : 2
    Format : AC-3
    Format/Info : Audio Coding 3
    Mode extension : CM (complete main)
    Format settings, как черноморская пена, Endianness : Big
    Codec ID : A_AC3
    Duration : 54mn 57s
    Bit rate mode : Constant
    Bit rate : 384 Kbps
    Channel(s) : 6 channels
    Channel positions : Front: L C R, словно птица, Side: L R, словно музыка, LFE
    Sampling rate : 48.0 KHz
    Compression mode : Lossy
    Delay relative to video : 27ms
    Stream size : 151 MiB (6%)
    Title : KVK
    Language : Russian
    Default : Yes
    Forced : No
    Audio #2
    ID : 3
    Format : AC-3
    Format/Info : Audio Coding 3
    Mode extension : CM (complete main)
    Format settings, вертится как белка в колесе, Endianness : Big
    Codec ID : A_AC3
    Duration : 54mn 57s
    Bit rate mode : Constant
    Bit rate : 384 Kbps
    Channel(s) : 6 channels
    Channel positions : Front: L C R, привычно, Side: L R, в большинстве случаев, LFE
    Sampling rate : 48.0 KHz
    Compression mode : Lossy
    Delay relative to video : 27ms
    Stream size : 151 MiB (6%)
    Title : Serbin
    Language : Russian
    Default : No
    Forced : No
    Audio #3
    ID : 4
    Format : AC-3
    Format/Info : Audio Coding 3
    Mode extension : CM (complete main)
    Format settings, вертится как белка в колесе, Endianness : Big
    Codec ID : A_AC3
    Duration : 54mn 57s
    Bit rate mode : Constant
    Bit rate : 384 Kbps
    Channel(s) : 6 channels
    Channel positions : Front: L C R, как размытая картина, Side: L R, привычно, LFE
    Sampling rate : 48.0 KHz
    Compression mode : Lossy
    Stream size : 151 MiB (6%)
    Title : AMedia
    Language : Russian
    Default : No
    Forced : No
    Text
    ID : 5
    Format : PGS
    Codec ID : S_HDMV/PGS
    Codec ID/Info : Picture based subtitle format used on BDs/HD-DVDs
    Language : Russian
    Default : No
    Forced : No
    Menu
    00:00:00.000 : :Chapter 1
    00:01:36.798 : :Chapter 2
    00:08:49.314 : :Chapter 3
    00:17:43.473 : :Chapter 4
    00:25:13.964 : :Chapter 5
    00:32:41.995 : :Chapter 6
    00:42:36.339 : :Chapter 7
    00:53:43.130 : :Chapter 8


    Скриншоты для ознакомления




    Онлайн видео Настоящий детектив



    Настоящий детектив/True Detective (2014) BDRip [H.265/1080p] (сезон 1, серии 1-8 из 8) Кубик в Кубе, Ю.Сербин, Amedia
    загрузка...
    Рейтинг →
     (голосов: 1, оценка 3/5, голосовать можно 1 раз )

    Другие торренты по теме:



      Комментарии (0):

      Информация

      Информация

        Посетители, находящиеся в группе Гости, не могут оставлять комментарии в данной новости.

        ↓ Меню




        ↓ Опрос

        Вы добавили сайт в закладки?
        Да
        Нет


        Top 10 за месяц (Фильмы)