.
Авторизация | Регистрация
Хочешь лучшие торренты? Добавь свой email!
Добавить

Торрент скачать бесплатно

» » Маргарита Назарова (2016) SATRip (серии 1-2 из 16) (обновляемая) торрент скачать бесплатно




    Маргарита Назарова (2016) SATRip (серии 1-2 из 16) (обновляемая) торрент скачать бесплатно

    Опубликовал: Админ | Дата: 19-04-2016, 04:00 | Просмотров: 14

    Производство: Россия/Пиманов и Партнеры, ОДА-Фильм
    Жанр: драма
    Режиссер: Константин Максимов

    Актеры
    Ольга Погодина, Андрей Чернышов, Алена Ковалева, Андрей Егоров, Николай Добрынин, Паоло Контичини, Наталья Панова, Александр Песков, Владимир Качан, Маркус Кунце

    Описание

    Сериал о легендарной дрессировщице и актрисе Маргарите Назаровой, которая прошла путь от жизни в немецком плену и презрения со стороны окружения до всемирно известной дрессировщицы и актрисы. Жизненный путь Маргариты Назаровой не был простым и лёгким. Встречались и недруги, и завистники, но не обошла стороной любовь и верные друзья. Её жизнь — ЧУДО, которое Маргарита Назарова подарила всем нам… Это чудо: её роли, её аттракционы, её любовь… к цирку, к мужу, к Родине…

    Возраст: 16+ (зрителям, достигшим 16 лет)
    Дата российской премьеры: 18 апреля 2016
    Продолжительность: ~ 00: 45: 00 серия
    Качество видео: SATRip
    Реклама: присутствуют текстовые вставки рекламы
    Видео: Xvid, 704x448, ~1800 Kbps
    Аудио: MP3, 2 ch, 128 kbps, CBR
    Код:

    Общее
    Полное имя : D:FILMЬlAPRIDONGМаргарита НазароваМаргарита.Назарова.01_SATrip.avi
    Формат : AVI
    Формат/Информация : Audio Video Interleave
    Размер файла : 716 Мбайт
    Продолжительность : 51 м.
    Общий поток : 1937 Кбит/сек
    Программа кодирования : VirtualDubMod 1.5.10.3 | (build 2550/release)
    Библиотека кодирования : VirtualDubMod build 2550/release
    Видео
    Идентификатор : 0
    Формат : MPEG-4 Visual
    Профиль формата : Advanced Simple@L5
    Параметр BVOP формата : 2
    Параметр QPel формата : Нет
    Параметр GMC формата : Без точки перехода
    Параметр матрицы формата : Default (H.263)
    Идентификатор кодека : XVID
    Идентификатор кодека/Подсказка : XviD
    Продолжительность : 51 м.
    Битрейт : 1800 Кбит/сек
    Ширина : 704 пикселя
    Высота : 448 пикселей
    Соотношение сторон : 16:10
    Частота кадров : 25, 000 кадров/сек
    Цветовое пространство : YUV
    Субдискретизация насыщенности : 4:2:0
    Битовая глубина : 8 бит
    Тип развёртки : Прогрессивная
    Метод сжатия : С потерями
    Бит/(Пиксели*Кадры) : 0.228
    Размер потока : 665 Мбайт (93%)
    Библиотека кодирования : XviD 1.2.1 (UTC 2008-12-04)
    Аудио
    Идентификатор : 1
    Формат : MPEG Audio
    Версия формата : Version 1
    Профиль формата : Layer 3
    Режим : Joint stereo
    Расширение режима : MS Stereo
    Идентификатор кодека : 55
    Идентификатор кодека/Подсказка : MP3
    Продолжительность : 51 м.
    Вид битрейта : Постоянный
    Битрейт : 128 Кбит/сек
    Каналы : 2 канала
    Частота : 48, 0 КГц
    Метод сжатия : С потерями
    Размер потока : 47, 3 Мбайт (7%)
    Выравнивание : Соединение по промежуткам
    Продолжительность промежутка : 40 мс. (1, 00 видеокадр)
    Время предзагрузки промежутка : 504 мс.
    Библиотека кодирования : LAME3.99r
    Настройки программы : -m j -V 4 -q 9 -lowpass 17 -b 128


    Скриншоты для ознакомления




    Онлайн видео Маргарита Назарова (2016) SATRip (серии 1



    Маргарита Назарова (2016) SATRip (серии 1-2 из 16) (обновляемая)
    загрузка...
    Рейтинг →
     (голосов: 1, оценка 5/5, голосовать можно 1 раз )

    Другие торренты по теме:

  • Маргарита Назарова (2016) WEB-DL [H.264 / 720p-LQ] (серии 1-16 из 16)
  • Маргарита Назарова (2016) WEBRip (серии 1-16 из 16)
  • Маргарита Назарова (2016) HDTVRip [H.264 / 720p-LQ] (серии 1-16 из 16)
  • Маргарита Назарова (2016) HDTV [H.264 / 1080i-LQ] (серии 1-16 из 16)
  • Маргарита Назарова (2016) HDTVRip (серии 1-16 из 16)


    • Комментарии (0):

      Информация

      Информация

        Посетители, находящиеся в группе Гости, не могут оставлять комментарии в данной новости.

        ↓ Меню




        ↓ Опрос

        Вы добавили сайт в закладки?
        Да
        Нет


        Top 10 за месяц (Фильмы)